<?xml version="1.0" standalone="no"?>
<!DOCTYPE svg PUBLIC "-//W3C//DTD SVG 1.1//EN" "http://www.w3.org/Graphics/SVG/1.1/DTD/svg11.dtd" >
<svg>
<metadata>
Created by FontForge 20120731 at Tue Jul 23 13:31:16 2019
 By www-data
Copyright (c) 1987, 1991, 1993, 1994, 1999 Adobe Systems Incorporated.  All Rights Reserved.Univers is a registered trademark of Linotype-Hell AG and/or its subsidiaries.
</metadata>
<defs>
<font id="Univers-Black" horiz-adv-x="667" >
  <font-face 
    font-family="Univers"
    font-weight="900"
    font-stretch="normal"
    units-per-em="1000"
    panose-1="2 11 10 0 0 0 0 0 0 0"
    ascent="750"
    descent="-250"
    x-height="501"
    cap-height="722"
    bbox="-153 -250 992 986"
    underline-thickness="50"
    underline-position="-50"
    stemh="140"
    stemv="200"
    unicode-range="U+0020-FB02"
  />
<missing-glyph horiz-adv-x="333" 
 />
    <glyph glyph-name=".notdef" horiz-adv-x="333" 
 />
    <glyph glyph-name="space" unicode=" " horiz-adv-x="333" 
 />
    <glyph glyph-name="space" unicode="&#xa0;" horiz-adv-x="333" 
 />
    <glyph glyph-name="exclam" unicode="!" horiz-adv-x="444" 
d="M111 722h216l-35 -507h-144zM133 0v149h176v-149h-176z" />
    <glyph glyph-name="quotedbl" unicode="&#x22;" horiz-adv-x="500" 
d="M208 427h-99l-29 266h157zM405 427h-98l-29 266h156z" />
    <glyph glyph-name="numbersign" unicode="#" 
d="M215 693h139l-32 -174h89l32 174h139l-32 -174h81v-119h-103l-21 -115h80v-119h-102l-31 -166h-139l30 166h-89l-30 -166h-140l31 166h-81v119h103l22 115h-81v119h103zM278 285h89l22 115h-89z" />
    <glyph glyph-name="dollar" unicode="$" 
d="M42 207h180c1 -29 5 -80 73 -97v153l-63 17c-68 18 -179 48 -179 184c0 94 66 196 242 201v90h59v-90c199 -9 236 -98 237 -205h-182c1 70 -40 83 -55 85v-143c104 -23 156 -35 203 -74c38 -32 58 -81 58 -132c0 -42 -14 -128 -116 -178c-37 -18 -83 -27 -145 -31v-89
h-59v89c-101 4 -252 37 -253 220zM295 418v128c-53 -14 -57 -49 -57 -64c0 -30 23 -56 57 -64zM354 250v-142c51 8 74 39 74 73c0 49 -45 61 -58 64z" />
    <glyph glyph-name="percent" unicode="%" horiz-adv-x="1000" 
d="M67 536c0 43 0 202 173 202c25 0 87 -4 128 -49c26 -30 44 -66 44 -150c0 -75 -12 -115 -37 -148c-28 -37 -76 -63 -136 -63c-44 0 -93 15 -125 50c-38 41 -47 105 -47 158zM193 523c0 -99 26 -105 46 -105c34 0 46 28 46 115c0 107 -19 119 -45 119
c-25 0 -47 -11 -47 -129zM617 208c0 44 0 203 173 203c25 0 87 -5 127 -50c27 -30 45 -66 45 -150c0 -74 -13 -115 -37 -148c-28 -37 -76 -63 -136 -63c-44 0 -93 16 -125 50c-38 42 -47 105 -47 158zM743 196c0 -100 25 -106 45 -106c34 0 47 28 47 116
c0 106 -19 118 -45 118c-25 0 -47 -10 -47 -128zM649 750h107l-375 -762h-111z" />
    <glyph glyph-name="ampersand" unicode="&#x26;" horiz-adv-x="889" 
d="M667 398h173c-4 -90 -26 -159 -107 -243l146 -155h-243l-43 47c-46 -26 -108 -61 -246 -61c-66 0 -198 11 -260 91c-17 22 -43 63 -43 121c0 123 108 168 170 194c-32 28 -100 85 -100 172c0 124 127 176 271 176c69 0 263 -12 263 -178c0 -101 -74 -151 -136 -193
l103 -102c50 63 51 111 52 131zM383 476c17 9 78 47 78 95c0 38 -35 59 -75 59c-42 0 -75 -24 -75 -59c0 -17 2 -37 72 -95zM478 153l-134 132c-71 -32 -90 -61 -90 -92c0 -37 34 -84 115 -84c39 0 82 12 109 44z" />
    <glyph glyph-name="quoteright" unicode="&#x2019;" horiz-adv-x="333" 
d="M106 722h187l-119 -266h-135z" />
    <glyph glyph-name="parenleft" unicode="(" horiz-adv-x="333" 
d="M166 753h130c-72 -243 -88 -319 -88 -436c0 -112 14 -216 89 -439h-132c-47 103 -118 261 -118 434c0 159 68 321 119 441z" />
    <glyph glyph-name="parenright" unicode=")" horiz-adv-x="333" 
d="M167 -122h-130c72 243 88 320 88 437c0 112 -14 216 -89 438h132c47 -102 118 -260 118 -433c0 -159 -68 -321 -119 -442z" />
    <glyph glyph-name="asterisk" unicode="*" horiz-adv-x="556" 
d="M275 597l42 138l109 -68l-93 -102l137 30v-129l-134 31l95 -110l-114 -61l-43 135l-44 -136l-107 63l93 109l-137 -29v127l139 -30l-94 105l107 64z" />
    <glyph glyph-name="plus" unicode="+" horiz-adv-x="660" 
d="M259 0v199h-198v140h198v199h143v-199h197v-140h-197v-199h-143z" />
    <glyph glyph-name="comma" unicode="," horiz-adv-x="333" 
d="M89 149h188l-118 -268h-136z" />
    <glyph glyph-name="hyphen" unicode="-" horiz-adv-x="333" 
d="M22 323h284v-119h-284v119z" />
    <glyph glyph-name="hyphen" unicode="&#xad;" horiz-adv-x="333" 
d="M22 323h284v-119h-284v119z" />
    <glyph glyph-name="period" unicode="." horiz-adv-x="333" 
d="M72 0v149h176v-149h-176z" />
    <glyph glyph-name="slash" unicode="/" horiz-adv-x="278" 
d="M95 -16h-126l220 743h125z" />
    <glyph glyph-name="zero" unicode="0" 
d="M30 350c0 66 11 188 83 274c61 74 150 89 213 89c132 0 191 -52 221 -90c46 -55 82 -134 82 -272c0 -199 -78 -365 -300 -365c-80 0 -160 24 -212 84c-76 87 -87 211 -87 280zM226 347c0 -148 20 -229 102 -229c31 0 62 15 77 41c30 54 30 169 30 184
c0 35 -3 116 -17 167c-7 25 -23 71 -87 71c-56 0 -105 -24 -105 -234z" />
    <glyph glyph-name="one" unicode="1" 
d="M277 0v515c-53 -44 -136 -77 -169 -86v154c80 25 126 47 200 111h162v-694h-193z" />
    <glyph glyph-name="two" unicode="2" 
d="M35 0v144c157 116 290 216 341 289c13 21 25 47 25 79c0 62 -50 70 -75 70c-75 0 -80 -62 -82 -81h-195c0 22 2 76 50 134c59 71 178 80 237 80c106 0 182 -27 227 -85c26 -33 37 -72 37 -112c0 -144 -136 -242 -328 -380h330v-138h-567z" />
    <glyph glyph-name="three" unicode="3" 
d="M25 200h194c2 -45 26 -84 101 -84c84 0 108 49 108 92c0 89 -106 89 -146 89c-22 0 -42 -1 -55 -2v124c26 -1 64 -3 105 3c86 12 86 80 86 88c0 48 -38 78 -94 78c-34 0 -86 -12 -89 -80h-193c5 145 131 208 289 208c180 0 277 -79 277 -184c0 -84 -66 -155 -161 -165v-5
c37 -4 175 -20 175 -169c0 -50 -16 -106 -73 -147c-34 -25 -90 -59 -227 -59c-115 0 -191 24 -244 80c-48 50 -51 101 -53 133z" />
    <glyph glyph-name="four" unicode="4" 
d="M352 0v138h-335v163l293 396h222v-432h112v-127h-112v-138h-180zM146 265h209v285z" />
    <glyph glyph-name="five" unicode="5" 
d="M49 198h191c2 -53 38 -79 86 -79c50 0 69 25 80 45c12 24 15 55 15 73c0 55 -22 108 -90 108c-48 0 -74 -30 -79 -61l-192 2l14 407h500v-136h-326l-12 -170c11 18 27 44 72 65c29 15 60 21 93 21c100 0 215 -61 215 -229c0 -43 -10 -132 -76 -193
c-60 -56 -144 -66 -204 -66c-57 0 -174 10 -237 79c-47 51 -49 103 -50 134z" />
    <glyph glyph-name="six" unicode="6" 
d="M596 522h-183c-3 32 -17 50 -34 61c-16 10 -34 12 -45 12c-55 0 -84 -41 -99 -79c-17 -42 -16 -98 -16 -135c17 25 59 87 178 87c139 0 230 -90 230 -227c0 -193 -160 -255 -285 -255c-83 0 -180 23 -239 112c-41 61 -66 139 -66 250c0 181 72 365 309 365
c93 0 243 -28 250 -191zM451 232c0 25 -6 117 -106 117c-71 0 -111 -48 -111 -120c0 -88 56 -114 107 -114c70 0 110 47 110 117z" />
    <glyph glyph-name="seven" unicode="7" 
d="M46 550v141h551v-140l-261 -551h-223l287 550h-354z" />
    <glyph glyph-name="eight" unicode="8" 
d="M214 365v3c-86 9 -156 61 -156 158c0 68 36 112 69 135c32 22 83 51 206 51c94 0 184 -18 237 -89c21 -27 31 -59 31 -94c0 -59 -34 -140 -151 -162v-5c113 -12 176 -76 176 -169c0 -116 -84 -207 -288 -207c-233 0 -307 102 -307 202c0 85 55 156 183 177zM330 426
c88 0 94 68 94 85c0 33 -20 85 -95 85c-50 0 -94 -27 -94 -84c0 -46 26 -86 95 -86zM329 111c92 0 116 55 116 96c0 52 -35 99 -118 99c-85 0 -113 -54 -113 -98c0 -35 18 -97 115 -97z" />
    <glyph glyph-name="nine" unicode="9" 
d="M36 178h184c1 -39 36 -69 92 -69c106 0 119 88 121 212c-34 -39 -78 -71 -162 -71c-93 0 -140 26 -177 63c-40 41 -63 97 -63 160c0 141 114 241 289 241c184 0 240 -100 265 -159c28 -66 38 -138 38 -210c0 -80 -14 -185 -75 -262c-65 -82 -155 -99 -241 -99
c-89 0 -170 18 -228 78c-38 40 -41 87 -43 116zM317 369c75 0 110 46 110 108c0 46 -23 110 -108 110c-74 0 -108 -48 -108 -108c0 -52 27 -110 106 -110z" />
    <glyph glyph-name="colon" unicode=":" horiz-adv-x="333" 
d="M79 0v149h176v-149h-176zM79 352v149h176v-149h-176z" />
    <glyph glyph-name="semicolon" unicode=";" horiz-adv-x="333" 
d="M79 352v149h174v-149h-174zM89 149h188l-118 -268h-136z" />
    <glyph glyph-name="less" unicode="&#x3c;" horiz-adv-x="660" 
d="M61 196v146l538 209v-150l-371 -132l371 -131v-152z" />
    <glyph glyph-name="equal" unicode="=" horiz-adv-x="660" 
d="M61 317v141h538v-141h-538zM61 80v141h538v-141h-538z" />
    <glyph glyph-name="greater" unicode="&#x3e;" horiz-adv-x="660" 
d="M599 196l-537 -210v152l370 131l-370 132v150l537 -209v-146z" />
    <glyph glyph-name="question" unicode="?" horiz-adv-x="556" 
d="M74 595v130c55 10 107 15 160 15c119 0 284 -29 284 -193c0 -48 0 -94 -142 -194c-60 -43 -60 -66 -60 -106v-54h-157v96c-1 25 0 34 37 72l77 80c25 26 43 45 43 80c0 51 -40 91 -132 91c-54 0 -84 -9 -110 -17zM148 0v149h176v-149h-176z" />
    <glyph glyph-name="at" unicode="@" horiz-adv-x="740" 
d="M676 144l37 -49c-107 -77 -199 -112 -314 -112c-250 0 -396 180 -396 372c0 217 178 388 410 388c190 0 348 -116 348 -305c0 -137 -90 -263 -217 -263c-28 0 -86 13 -90 80c-37 -67 -91 -86 -135 -86c-80 0 -141 58 -141 159c0 122 90 245 207 245c45 0 89 -21 107 -62
l12 45h109l-59 -203c-6 -23 -16 -58 -16 -68c0 -33 26 -38 37 -38c45 0 115 79 115 196c0 160 -134 238 -276 238c-205 0 -339 -149 -339 -329c0 -164 118 -307 329 -307c99 0 194 38 272 99zM459 449c0 32 -25 45 -44 45c-66 0 -108 -117 -108 -178c0 -52 25 -68 48 -68
c20 0 40 10 59 47c12 23 45 115 45 154z" />
    <glyph glyph-name="A" unicode="A" horiz-adv-x="833" 
d="M8 0l285 722h244l285 -722h-226l-50 145h-289l-49 -145h-200zM304 278h196l-93 303h-3z" />
    <glyph glyph-name="B" unicode="B" horiz-adv-x="722" 
d="M61 0v722h289c91 0 184 0 250 -59c23 -21 55 -60 55 -124c0 -128 -118 -155 -154 -164v-2c45 -8 174 -31 174 -179c0 -56 -21 -122 -100 -164c-57 -30 -130 -30 -195 -30h-319zM255 591v-160h94c32 0 53 0 70 9c23 13 38 39 38 70c0 22 -8 48 -28 64
c-22 17 -44 17 -65 17h-109zM256 303v-171h111c23 0 103 0 103 84c0 87 -82 87 -109 87h-105z" />
    <glyph glyph-name="C" unicode="C" horiz-adv-x="778" 
d="M732 495h-206c-9 73 -60 100 -117 100c-121 0 -158 -111 -158 -243c0 -44 1 -226 156 -226c106 0 117 77 121 105h208c-1 -226 -231 -245 -325 -245c-70 0 -194 12 -274 96c-79 84 -93 199 -93 274c0 99 23 198 91 275c74 84 169 106 274 106c117 0 206 -28 263 -88
c58 -62 59 -127 60 -154z" />
    <glyph glyph-name="D" unicode="D" horiz-adv-x="833" 
d="M73 0v722h305c86 0 200 -9 275 -60c107 -73 136 -192 136 -299c0 -160 -51 -278 -197 -335c-74 -28 -162 -28 -212 -28h-307zM278 585v-446h86c133 1 218 58 218 226c0 219 -164 219 -225 219z" />
    <glyph glyph-name="E" unicode="E" 
d="M69 0v720h542v-138h-344v-150h324v-138h-324v-154h352v-140h-550z" />
    <glyph glyph-name="F" unicode="F" horiz-adv-x="611" 
d="M71 0v720h511v-139h-312v-168h290v-139h-290v-274h-199z" />
    <glyph glyph-name="G" unicode="G" horiz-adv-x="833" 
d="M764 506h-203c-11 75 -70 96 -125 96c-137 0 -187 -120 -187 -241c0 -169 93 -240 214 -240c37 0 74 5 111 12v140h-153v137h341v-386c-105 -25 -212 -40 -319 -40c-78 0 -186 12 -270 75c-92 69 -134 183 -134 298c0 87 26 208 108 287c86 81 212 96 299 96
c113 0 206 -24 264 -84c52 -55 53 -115 54 -150z" />
    <glyph glyph-name="H" unicode="H" horiz-adv-x="778" 
d="M65 0v722h202v-282h241v282h203v-722h-203v292h-242v-292h-201z" />
    <glyph glyph-name="I" unicode="I" horiz-adv-x="333" 
d="M60 0v722h206v-722h-206z" />
    <glyph glyph-name="J" unicode="J" horiz-adv-x="611" 
d="M5 231h199c0 -30 -1 -102 67 -102c73 0 73 70 73 108v485h203v-478c0 -30 -3 -120 -49 -174c-63 -72 -160 -86 -227 -86c-86 0 -179 21 -233 98c-33 47 -33 113 -33 149z" />
    <glyph glyph-name="K" unicode="K" horiz-adv-x="778" 
d="M76 0v722h203v-317l231 317h237l-249 -318l269 -404h-248l-240 384v-384h-203z" />
    <glyph glyph-name="L" unicode="L" horiz-adv-x="611" 
d="M67 0v722h203v-580h324v-142h-527z" />
    <glyph glyph-name="M" unicode="M" horiz-adv-x="1000" 
d="M63 0v722h315l120 -489l114 489l314 1l1 -723h-189l9 606l-171 -606h-180l-165 611l5 -611h-173z" />
    <glyph glyph-name="N" unicode="N" horiz-adv-x="833" 
d="M67 0v722h276l244 -538l-2 538h175v-722h-270l-249 561l2 -561h-176z" />
    <glyph glyph-name="O" unicode="O" horiz-adv-x="833" 
d="M40 358c0 48 8 192 99 284s229 100 282 100c288 0 366 -207 366 -383c0 -288 -204 -376 -376 -376c-192 0 -371 106 -371 375zM246 359c0 -115 34 -229 167 -229c143 0 167 132 167 232c0 101 -24 151 -46 183c-29 40 -76 52 -120 52c-132 0 -168 -114 -168 -238z" />
    <glyph glyph-name="P" unicode="P" horiz-adv-x="722" 
d="M73 0v722h332c56 0 129 0 188 -37c61 -37 102 -102 102 -196c0 -127 -81 -182 -109 -197c-56 -31 -143 -31 -182 -31l-130 -1v-260h-201zM274 588v-190h89c49 0 128 0 128 97c0 88 -71 93 -129 93h-88z" />
    <glyph glyph-name="Q" unicode="Q" horiz-adv-x="833" 
d="M820 130v-129c-207 1 -231 0 -288 -3c-24 -1 -130 -7 -151 -7c-205 0 -339 146 -339 353c0 83 15 165 56 237c78 138 231 160 322 160c139 0 213 -41 269 -97c86 -87 98 -193 98 -256c0 -181 -102 -249 -140 -275c20 6 77 21 173 17zM246 359c0 -115 34 -229 167 -229
c140 0 167 127 167 231c0 96 -22 149 -46 184c-28 40 -75 52 -120 52c-132 0 -168 -114 -168 -238z" />
    <glyph glyph-name="R" unicode="R" horiz-adv-x="722" 
d="M65 0v722h334c130 0 179 -8 222 -52c22 -22 50 -62 50 -140c0 -79 -32 -113 -66 -134c-46 -29 -90 -34 -110 -37v-4c140 -4 148 -66 164 -177c7 -49 17 -127 34 -178h-217c-12 44 -17 99 -24 163c-9 87 -12 119 -102 119h-84v-282h-201zM266 589v-177h75c44 0 66 0 83 6
c44 14 53 59 53 82c0 89 -78 89 -136 89h-75z" />
    <glyph glyph-name="S" unicode="S" horiz-adv-x="722" 
d="M42 230h201c1 -29 3 -112 122 -112c17 0 107 0 107 82c0 34 -14 57 -62 70l-177 46c-50 13 -179 47 -179 198c0 117 88 226 304 226c282 0 294 -153 295 -230h-203c0 22 1 100 -95 100c-58 0 -95 -33 -95 -76c0 -53 44 -66 73 -74l135 -35c96 -25 210 -55 210 -208
c0 -161 -138 -233 -319 -233c-75 0 -196 12 -262 86c-53 58 -54 129 -55 160z" />
    <glyph glyph-name="T" unicode="T" 
d="M230 0v579h-220v143h647v-143h-225v-579h-202z" />
    <glyph glyph-name="U" unicode="U" horiz-adv-x="833" 
d="M72 722h202v-429c0 -39 3 -79 23 -109c27 -40 74 -59 123 -59c127 0 144 103 144 175v422h195v-418c0 -80 -11 -167 -56 -220c-70 -86 -199 -103 -290 -103c-341 0 -342 212 -342 330z" />
    <glyph glyph-name="V" unicode="V" horiz-adv-x="778" 
d="M264 0l-255 722h221l164 -523l173 523h199l-263 -722h-239z" />
    <glyph glyph-name="W" unicode="W" horiz-adv-x="1000" 
d="M131 0l-123 722h199l67 -526l118 526h245l107 -522l67 522h181l-124 -722h-240l-125 535l-133 -535h-239z" />
    <glyph glyph-name="X" unicode="X" horiz-adv-x="833" 
d="M402 257l-160 -257h-234l274 376l-254 346h258l141 -224l146 224h230l-257 -342l270 -380h-256z" />
    <glyph glyph-name="Y" unicode="Y" horiz-adv-x="778" 
d="M6 722h232l158 -303l163 303h206l-282 -467v-255h-202v264z" />
    <glyph glyph-name="Z" unicode="Z" 
d="M17 0v159l360 422h-340v139h588v-154l-372 -426h380v-140h-616z" />
    <glyph glyph-name="bracketleft" unicode="[" horiz-adv-x="333" 
d="M59 -123v878h278v-102h-137v-672h137v-104h-278z" />
    <glyph glyph-name="backslash" unicode="\" horiz-adv-x="278" 
d="M188 -16l-219 743h125l220 -743h-126z" />
    <glyph glyph-name="bracketright" unicode="]" horiz-adv-x="333" 
d="M-14 -123v104h136v672h-136v102h278v-878h-278z" />
    <glyph glyph-name="asciicircum" unicode="^" horiz-adv-x="660" 
d="M84 286l182 436h128l182 -436h-150l-97 265l-95 -265h-150z" />
    <glyph glyph-name="underscore" unicode="_" horiz-adv-x="500" 
d="M0 -125v50h500v-50h-500z" />
    <glyph glyph-name="quoteleft" unicode="&#x2018;" horiz-adv-x="333" 
d="M215 456h-186l119 266h134z" />
    <glyph glyph-name="a" unicode="a" horiz-adv-x="611" 
d="M560 0h-180c-4 18 -6 40 -6 72c-23 -34 -62 -82 -165 -82c-123 0 -177 67 -177 156c0 137 127 187 343 178c1 54 -6 104 -63 104c-35 0 -68 -19 -67 -76h-180c1 23 1 66 39 105c39 40 117 63 208 63c45 0 141 -6 194 -58c32 -31 44 -78 44 -132v-234c0 -36 1 -46 10 -96z
M374 237c-80 -1 -157 -2 -157 -74c0 -37 24 -68 69 -68c20 0 55 8 74 48c15 32 15 73 14 94z" />
    <glyph glyph-name="b" unicode="b" 
d="M61 722h189v-273c52 65 141 66 159 66c96 0 154 -51 186 -105c27 -47 32 -102 32 -156c0 -98 -23 -153 -65 -198c-56 -61 -120 -67 -158 -67c-33 0 -105 3 -167 85l-6 -74h-176c5 57 6 122 6 125v597zM244 254c0 -33 6 -152 95 -152c94 0 94 120 94 153
c0 51 -6 151 -90 151c-93 0 -99 -115 -99 -152z" />
    <glyph glyph-name="c" unicode="c" horiz-adv-x="611" 
d="M574 326h-186c0 47 -18 86 -67 86c-69 0 -85 -70 -85 -158c0 -130 36 -160 83 -160c64 0 68 64 68 102h190c1 -127 -101 -208 -253 -208c-160 0 -282 85 -282 266c0 198 139 265 280 265c54 0 145 -9 203 -72c43 -46 47 -92 49 -121z" />
    <glyph glyph-name="d" unicode="d" 
d="M415 722h188v-597c0 -42 2 -83 5 -125h-178l-4 74c-20 -29 -59 -86 -170 -86c-173 0 -222 140 -222 263c0 107 29 157 63 194c46 49 102 68 165 68c84 0 120 -35 153 -70v279zM322 99c68 0 95 68 95 154c0 84 -27 150 -93 150c-84 0 -95 -106 -95 -153
c0 -48 10 -151 93 -151z" />
    <glyph glyph-name="e" unicode="e" horiz-adv-x="611" 
d="M571 213h-360c0 -27 0 -122 96 -122c50 0 81 26 86 73h175c-14 -126 -132 -175 -262 -175c-175 0 -269 88 -269 254c0 168 82 277 267 277c140 0 205 -57 239 -128c22 -43 28 -91 28 -179zM213 315h181c-2 29 -8 105 -90 105s-89 -81 -91 -105z" />
    <glyph glyph-name="f" unicode="f" horiz-adv-x="444" 
d="M427 719v-121c-8 2 -27 6 -52 6c-77 0 -75 -62 -74 -104h121v-122h-121v-378h-184v378h-97v122h100c-3 120 -1 225 196 225c51 0 90 -4 111 -6z" />
    <glyph glyph-name="g" unicode="g" 
d="M428 505h177v-468c0 -60 -12 -131 -80 -179c-43 -31 -104 -56 -207 -56c-57 0 -152 8 -209 59c-44 39 -45 86 -46 112h177c1 -38 28 -64 82 -64c94 0 100 68 100 122v66c-51 -76 -133 -81 -162 -81c-106 0 -223 66 -223 249c0 136 72 249 225 249c97 0 141 -45 166 -85
v76zM419 269c0 26 0 140 -91 140c-63 0 -97 -58 -97 -142c0 -53 12 -140 95 -140c90 0 93 106 93 142z" />
    <glyph glyph-name="h" unicode="h" 
d="M65 0v722h190v-275c20 20 66 66 157 66c49 0 99 -13 140 -51c50 -45 50 -100 50 -170v-292h-187v270c0 42 0 124 -78 124c-60 0 -74 -50 -79 -70c-5 -23 -5 -55 -5 -97v-227h-188z" />
    <glyph glyph-name="i" unicode="i" horiz-adv-x="333" 
d="M67 586v134h192v-134h-192zM69 0v502h188v-502h-188z" />
    <glyph glyph-name="j" unicode="j" horiz-adv-x="333" 
d="M5 -194v123c67 -8 67 35 67 81v492h190v-536c0 -118 -47 -162 -190 -162c-24 0 -37 0 -67 2zM71 586v134h192v-134h-192z" />
    <glyph glyph-name="k" unicode="k" 
d="M74 0v722h184v-442l172 222h208l-171 -212l196 -290h-226l-179 279v-279h-184z" />
    <glyph glyph-name="l" unicode="l" horiz-adv-x="333" 
d="M69 0v722h188v-722h-188z" />
    <glyph glyph-name="m" unicode="m" horiz-adv-x="1000" 
d="M61 0v388c0 12 -4 99 -4 114h186l2 -83c36 65 94 95 170 95c29 0 125 -5 158 -93c47 78 125 94 177 94c94 0 139 -49 158 -78c27 -43 27 -104 27 -162v-275h-188v284c0 51 0 111 -75 111c-25 0 -53 -9 -70 -42c-6 -12 -10 -28 -10 -71v-282h-188v286c0 45 0 109 -75 109
c-64 0 -80 -53 -80 -109v-286h-188z" />
    <glyph glyph-name="n" unicode="n" 
d="M64 0v395l-5 107h188l2 -77c23 38 63 88 167 88c184 0 184 -140 184 -209v-304h-188v288c0 35 0 106 -77 106c-84 0 -84 -88 -84 -106v-288h-187z" />
    <glyph glyph-name="o" unicode="o" 
d="M38 253c0 154 95 266 294 266c163 0 290 -82 290 -260c0 -73 -21 -147 -73 -199c-42 -41 -104 -72 -207 -72c-111 0 -183 27 -232 74c-58 55 -72 130 -72 191zM233 252c0 -33 3 -82 24 -119c22 -38 56 -40 73 -40c82 0 98 89 98 159c0 87 -21 160 -96 160
c-83 0 -99 -85 -99 -160z" />
    <glyph glyph-name="p" unicode="p" 
d="M56 502h184l2 -71c18 25 60 84 165 84c84 0 216 -48 216 -254c0 -195 -110 -271 -224 -271c-89 0 -129 45 -151 70v-250h-188v610c-2 55 -3 61 -4 82zM244 253c0 -40 5 -151 91 -151c79 0 95 86 95 161c0 48 -10 144 -90 144c-96 0 -96 -125 -96 -154z" />
    <glyph glyph-name="q" unicode="q" 
d="M418 429l2 73h182c-1 -17 -1 -21 -4 -55c-1 -6 -1 -21 -1 -27v-610h-187v254c-20 -24 -61 -74 -158 -74c-108 0 -220 72 -220 256c0 141 70 267 218 267c104 0 148 -58 168 -84zM315 98c89 0 97 110 97 155c0 44 -5 151 -94 151c-82 0 -91 -99 -91 -154
c0 -48 10 -152 88 -152z" />
    <glyph glyph-name="r" unicode="r" horiz-adv-x="444" 
d="M67 0v395l-5 107h183l3 -104c43 112 134 109 177 108v-161c-22 2 -27 3 -40 3c-115 0 -131 -81 -131 -135v-213h-187z" />
    <glyph glyph-name="s" unicode="s" horiz-adv-x="556" 
d="M29 163h186c0 -9 0 -28 8 -45c7 -16 23 -31 55 -31c43 0 57 29 57 51c0 35 -29 45 -71 56l-102 29c-31 8 -122 33 -122 136c0 50 27 92 60 114c44 31 104 43 178 43c108 0 221 -29 229 -169h-178c0 15 0 34 -7 49c-8 16 -22 27 -52 27c-29 0 -56 -13 -56 -44
c0 -29 21 -40 51 -48l134 -37c48 -13 118 -40 118 -138c0 -170 -197 -170 -241 -170c-102 0 -249 15 -247 177z" />
    <glyph glyph-name="t" unicode="t" horiz-adv-x="444" 
d="M292 500h119v-120h-121v-174c1 -62 1 -90 73 -90c15 0 24 0 47 3v-118c-25 -4 -58 -9 -122 -9c-150 0 -180 50 -180 147v241h-95v120h98v78l181 72v-150z" />
    <glyph glyph-name="u" unicode="u" 
d="M64 502h187v-293c0 -28 0 -98 75 -98c79 0 79 72 79 100v291h188v-415c2 -43 2 -48 3 -87h-185l-4 78c-51 -81 -114 -87 -158 -87c-174 0 -185 132 -185 228v283z" />
    <glyph glyph-name="v" unicode="v" horiz-adv-x="611" 
d="M200 0l-191 502h202l100 -352l107 352h177l-190 -502h-205z" />
    <glyph glyph-name="w" unicode="w" horiz-adv-x="944" 
d="M160 0l-153 502h192l82 -356l89 356h210l88 -354l89 354h168l-158 -502h-210l-92 350l-99 -350h-206z" />
    <glyph glyph-name="x" unicode="x" horiz-adv-x="611" 
d="M181 262l-149 240h219l64 -154l67 154h192l-154 -240l170 -262h-222l-79 186l-83 -186h-194z" />
    <glyph glyph-name="y" unicode="y" horiz-adv-x="611" 
d="M595 502l-273 -692h-175l71 174l-210 518h203l100 -349l109 349h175z" />
    <glyph glyph-name="z" unicode="z" horiz-adv-x="556" 
d="M40 0v127l241 253h-230v121h444v-124l-244 -258h256v-119h-467z" />
    <glyph glyph-name="braceleft" unicode="{" horiz-adv-x="333" 
d="M-18 269v94c107 16 114 88 114 129v23c0 110 6 227 255 240v-90c-110 -7 -110 -86 -110 -146v-22c0 -64 -12 -99 -44 -133c-37 -42 -92 -46 -120 -48c40 -5 85 -10 122 -48c41 -40 42 -95 42 -133v-22c0 -59 0 -142 110 -146v-90c-97 5 -158 24 -203 64
c-32 29 -52 62 -52 176v23c0 49 -1 109 -114 129z" />
    <glyph glyph-name="bar" unicode="|" horiz-adv-x="278" 
d="M68 750h142v-1000h-142v1000z" />
    <glyph glyph-name="braceright" unicode="}" horiz-adv-x="333" 
d="M351 363v-94c-107 -16 -114 -88 -114 -129v-23c0 -110 -6 -227 -255 -240v90c110 7 110 86 110 146v22c0 64 12 99 44 133c37 42 92 46 120 48c-40 5 -85 10 -122 47c-41 41 -42 96 -42 134v22c0 59 0 142 -110 146v90c97 -5 158 -24 203 -64c32 -29 52 -62 52 -176v-23
c0 -49 1 -109 114 -129z" />
    <glyph glyph-name="asciitilde" unicode="~" horiz-adv-x="660" 
d="M143 172h-91c7 121 76 199 155 199c18 0 38 -3 146 -36c40 -12 78 -24 105 -24c48 0 54 37 58 57h92c-7 -92 -49 -201 -156 -201c-34 0 -98 20 -179 46c-8 2 -52 16 -74 16c-33 0 -51 -25 -56 -57z" />
    <glyph glyph-name="exclamdown" unicode="&#xa1;" horiz-adv-x="444" 
d="M150 324h144l37 -507h-217zM310 389h-180v150h180v-150z" />
    <glyph glyph-name="cent" unicode="&#xa2;" 
d="M329 517l38 127h139l-40 -146c72 -29 134 -94 134 -174h-195c2 30 -11 63 -67 63c-70 0 -80 -80 -80 -136s10 -136 80 -136c60 0 67 40 71 79h195c-3 -70 -38 -124 -85 -159s-109 -52 -176 -50l-44 -141h-139l45 169c-107 50 -142 135 -142 248c0 183 118 245 266 256z
" />
    <glyph glyph-name="sterling" unicode="&#xa3;" 
d="M34 0v117h74v220h-96v114h96c0 105 1 291 276 291c257 0 260 -159 261 -223h-185c0 36 0 108 -80 108c-86 0 -86 -87 -85 -176h145v-114h-145v-220h316v-117h-577z" />
    <glyph glyph-name="fraction" unicode="&#x2044;" horiz-adv-x="167" 
d="M-44 0h-109l365 707h109z" />
    <glyph glyph-name="fraction" unicode="&#x2215;" horiz-adv-x="167" 
d="M-44 0h-109l365 707h109z" />
    <glyph glyph-name="yen" unicode="&#xa5;" 
d="M425 0h-190v120h-181v130h179l-30 54h-149v130h89l-134 258h201l120 -273l127 273h201l-139 -258h94v-130h-149l-30 -54h179v-130h-188v-120z" />
    <glyph glyph-name="florin" unicode="&#x192;" 
d="M531 433l-24 -130h-94l-59 -311c-25 -144 -90 -190 -215 -190c-36 0 -72 1 -107 8l24 122c42 -3 82 -6 93 52l65 319h-97l25 130h94c34 140 24 274 242 274c32 0 65 -2 96 -7l-23 -126c-110 20 -96 -63 -116 -141h96z" />
    <glyph glyph-name="section" unicode="&#xa7;" 
d="M122 2v113c59 -20 108 -24 141 -24c84 0 103 20 103 45c0 23 -22 35 -65 50l-97 34c-90 31 -114 73 -114 128c0 62 30 105 110 145c-20 8 -86 35 -86 116c0 129 161 133 212 133c56 0 144 -12 176 -16v-114c-56 19 -99 22 -126 22c-40 0 -72 -10 -72 -35
c0 -23 22 -33 55 -45l113 -39c64 -22 103 -62 103 -136c0 -43 -15 -95 -94 -135c41 -22 82 -48 82 -114c0 -150 -195 -150 -236 -150c-8 0 -122 0 -205 22zM372 282c15 18 36 48 36 79c0 47 -41 66 -98 93c-39 -33 -48 -54 -48 -75c0 -52 55 -76 110 -97z" />
    <glyph glyph-name="currency" unicode="&#xa4;" horiz-adv-x="660" 
d="M69 172l67 67c-12 23 -29 56 -29 110c0 53 18 89 29 111l-67 67l84 84l67 -67c23 12 58 29 110 29c55 0 89 -18 111 -29l66 67l84 -84l-66 -67c9 -18 29 -57 29 -111c0 -56 -20 -94 -29 -110l67 -67l-84 -84l-67 67c-23 -12 -56 -29 -110 -29c-53 0 -88 17 -111 29
l-67 -67zM330 448c-54 0 -99 -44 -99 -98c0 -55 44 -99 99 -99s99 44 99 99s-45 98 -99 98z" />
    <glyph glyph-name="quotesingle" unicode="'" horiz-adv-x="333" 
d="M216 427h-99l-29 266h157z" />
    <glyph glyph-name="quotedblleft" unicode="&#x201c;" 
d="M278 456h-187l120 266h134zM520 456h-187l120 266h134z" />
    <glyph glyph-name="guillemotleft" unicode="&#xab;" 
d="M181 449h155l-120 -196l120 -194h-154l-125 196zM449 449h155l-119 -196l119 -194h-154l-125 196z" />
    <glyph glyph-name="guilsinglleft" unicode="&#x2039;" horiz-adv-x="333" 
d="M150 449h155l-119 -196l119 -194h-154l-125 196z" />
    <glyph glyph-name="guilsinglright" unicode="&#x203a;" horiz-adv-x="333" 
d="M181 59h-155l119 196l-119 194h154l125 -196z" />
    <glyph glyph-name="fi" unicode="&#xfb01;" horiz-adv-x="722" 
d="M651 0h-190v502h190v-502zM652 588h-192v134h192v-134zM304 0h-190v382h-94v120h96c-6 168 38 232 209 232c34 0 68 -5 102 -12v-119c-17 5 -36 11 -53 11c-64 0 -72 -56 -70 -112h117v-120h-117v-382z" />
    <glyph glyph-name="fl" unicode="&#xfb02;" horiz-adv-x="722" 
d="M651 0h-190v722h190v-722zM304 0h-190v382h-94v120h96c-6 168 38 232 209 232c34 0 68 -5 102 -12v-119c-17 5 -36 11 -53 11c-64 0 -72 -56 -70 -112h117v-120h-117v-382z" />
    <glyph glyph-name="endash" unicode="&#x2013;" horiz-adv-x="500" 
d="M0 204v127h500v-127h-500z" />
    <glyph glyph-name="dagger" unicode="&#x2020;" 
d="M250 441h-171v125h171v156h156v-156h168v-125h-168v-441h-156v441z" />
    <glyph glyph-name="daggerdbl" unicode="&#x2021;" 
d="M79 150v125h171v174h-171v125h171v148h156v-148h168v-125h-168v-174h168v-125h-168v-150h-156v150h-171z" />
    <glyph glyph-name="periodcentered" unicode="&#xb7;" horiz-adv-x="333" 
d="M72 204v149h176v-149h-176z" />
    <glyph glyph-name="periodcentered" unicode="&#x2219;" horiz-adv-x="333" 
d="M72 204v149h176v-149h-176z" />
    <glyph glyph-name="paragraph" unicode="&#xb6;" horiz-adv-x="850" 
d="M726 610h-50v-788h-136v788h-89v-788h-136v422c-35 4 -84 10 -130 52c-46 44 -65 108 -65 172c0 112 64 254 265 254h341v-112z" />
    <glyph glyph-name="bullet" unicode="&#x2022;" horiz-adv-x="500" 
d="M250 542c99 0 181 -81 181 -181c0 -99 -81 -180 -181 -180s-181 81 -181 180c0 101 82 181 181 181z" />
    <glyph glyph-name="quotesinglbase" unicode="&#x201a;" horiz-adv-x="333" 
d="M23 -97l60 236h172l-105 -236h-127z" />
    <glyph glyph-name="quotedblbase" unicode="&#x201e;" 
d="M95 -97l60 236h171l-104 -236h-127zM332 -97l60 236h172l-105 -236h-127z" />
    <glyph glyph-name="quotedblright" unicode="&#x201d;" 
d="M160 722h186l-119 -266h-134zM402 722h186l-119 -266h-134z" />
    <glyph glyph-name="guillemotright" unicode="&#xbb;" 
d="M212 59h-155l119 196l-119 194h154l125 -196zM480 59h-155l119 196l-119 194h154l125 -196z" />
    <glyph glyph-name="ellipsis" unicode="&#x2026;" horiz-adv-x="1000" 
d="M79 0v149h176v-149h-176zM412 0v149h176v-149h-176zM745 0v149h176v-149h-176z" />
    <glyph glyph-name="perthousand" unicode="&#x2030;" horiz-adv-x="1000" 
d="M13 553c0 105 49 176 147 176c91 0 141 -65 141 -170c0 -31 -4 -91 -40 -131c-32 -37 -75 -44 -104 -44c-34 0 -74 9 -105 42c-35 38 -39 96 -39 127zM118 555c0 -49 6 -95 39 -95c35 0 38 68 38 102c0 72 -15 89 -38 89c-25 0 -39 -24 -39 -96zM357 163
c0 105 49 176 147 176c92 0 142 -65 142 -170c0 -31 -5 -91 -40 -131c-33 -37 -76 -44 -104 -44c-34 0 -75 9 -105 42c-35 38 -40 96 -40 127zM463 165c0 -49 5 -95 39 -95c35 0 38 68 38 102c0 72 -15 89 -38 89c-25 0 -39 -24 -39 -96zM692 163c0 105 48 176 147 176
c91 0 141 -65 141 -170c0 -31 -4 -91 -40 -131c-32 -37 -75 -44 -104 -44c-34 0 -74 9 -105 42c-35 38 -39 96 -39 127zM797 165c0 -49 6 -95 39 -95c35 0 38 68 38 102c0 72 -15 89 -38 89c-25 0 -39 -24 -39 -96zM46 -20l462 764h98l-460 -764h-100z" />
    <glyph glyph-name="questiondown" unicode="&#xbf;" horiz-adv-x="556" 
d="M242 349h160c-4 -98 22 -108 -55 -184c-26 -26 -99 -94 -99 -147c0 -69 75 -86 130 -86c36 0 73 4 107 15v-130c-52 -10 -107 -15 -160 -15c-116 0 -287 31 -287 193c0 93 70 137 138 189c51 37 66 52 66 116v49zM412 389h-180v150h180v-150z" />
    <glyph glyph-name="grave" unicode="`" horiz-adv-x="333" 
d="M136 581l-186 145h208l107 -145h-129z" />
    <glyph glyph-name="acute" unicode="&#xb4;" horiz-adv-x="333" 
d="M384 726l-183 -145h-132l111 145h204z" />
    <glyph glyph-name="circumflex" unicode="&#x2c6;" horiz-adv-x="333" 
d="M78 726h169l120 -145h-130l-74 77l-74 -77h-130z" />
    <glyph glyph-name="tilde" unicode="&#x2dc;" horiz-adv-x="333" 
d="M22 581h-78c2 38 17 74 42 101s61 45 104 45c26 0 46 -6 73 -14l77 -22c13 -4 21 -6 31 -6c29 0 32 29 33 39h81c-7 -78 -65 -144 -140 -144c-17 0 -36 5 -50 9l-82 24c-28 8 -36 8 -43 8c-38 0 -46 -32 -48 -40z" />
    <glyph glyph-name="macron" unicode="&#xaf;" horiz-adv-x="333" 
d="M-27 614v76h382v-76h-382z" />
    <glyph glyph-name="macron" unicode="&#x2c9;" horiz-adv-x="333" 
d="M-27 614v76h382v-76h-382z" />
    <glyph glyph-name="breve" unicode="&#x2d8;" horiz-adv-x="333" 
d="M-30 726h82c2 -23 22 -69 113 -69c90 0 107 47 115 69h77c-3 -24 -8 -59 -41 -97c-46 -52 -121 -57 -152 -57c-45 0 -98 11 -131 34c-40 27 -60 73 -63 120z" />
    <glyph glyph-name="dotaccent" unicode="&#x2d9;" horiz-adv-x="333" 
d="M81 581v145h171v-145h-171z" />
    <glyph glyph-name="dieresis" unicode="&#xa8;" horiz-adv-x="333" 
d="M212 581v145h171v-145h-171zM-51 581v145h171v-145h-171z" />
    <glyph glyph-name="ring" unicode="&#x2da;" horiz-adv-x="333" 
d="M279 653c0 -62 -50 -112 -112 -112s-112 51 -112 112c0 62 49 113 112 113c62 0 112 -51 112 -113zM220 653c0 30 -24 54 -53 54c-30 0 -53 -24 -53 -54c0 -29 23 -53 53 -53c29 0 53 24 53 53z" />
    <glyph glyph-name="cedilla" unicode="&#xb8;" horiz-adv-x="333" 
d="M139 9h49l-38 -71c7 1 18 3 34 3c68 0 98 -37 98 -74c0 -36 -28 -85 -136 -85c-21 0 -67 1 -113 20l13 45c13 -6 46 -22 93 -22c13 0 53 0 53 39c0 26 -27 37 -50 37c-16 0 -27 -4 -38 -9l-23 20z" />
    <glyph glyph-name="hungarumlaut" unicode="&#x2dd;" 
d="M692 726l-183 -145h-132l111 145h204zM411 726l-183 -145h-132l111 145h204z" />
    <glyph glyph-name="ogonek" unicode="&#x2db;" horiz-adv-x="333" 
d="M261 -143v-48c-34 -17 -54 -26 -91 -26c-73 0 -98 42 -98 75c0 51 46 108 117 143h45c-31 -24 -68 -51 -68 -97c0 -54 38 -59 55 -59c19 0 30 6 40 12z" />
    <glyph glyph-name="caron" unicode="&#x2c7;" horiz-adv-x="333" 
d="M166 647l76 79h127l-120 -145h-167l-119 145h126z" />
    <glyph glyph-name="emdash" unicode="&#x2014;" horiz-adv-x="1000" 
d="M130 204v127h740v-127h-740z" />
    <glyph glyph-name="AE" unicode="&#xc6;" horiz-adv-x="1000" 
d="M502 0l-16 143h-226l-55 -143h-198l317 722h628v-140h-318l16 -149h273v-140h-258l15 -153h272v-140h-450zM435 597l-124 -314h162l-33 314h-5z" />
    <glyph glyph-name="ordfeminine" unicode="&#xaa;" horiz-adv-x="367" 
d="M138 524c0 -22 15 -36 39 -36c48 0 45 42 45 74c-13 0 -36 -1 -54 -6c-19 -3 -30 -13 -30 -32zM226 427l-4 25h-2c-9 -13 -41 -34 -81 -34c-73 0 -132 31 -131 100c1 73 97 114 176 114h39c0 10 -2 35 -29 35c-28 0 -42 -15 -41 -23h-117c0 37 24 61 57 75
c34 15 76 18 112 18c67 0 147 -26 147 -93v-155c0 -13 2 -26 7 -62h-133z" />
    <glyph glyph-name="Lslash" unicode="&#x141;" horiz-adv-x="611" 
d="M67 0v274l-79 -45v97l79 46v350h203v-234l181 104v-97l-181 -104v-249h324v-142h-527z" />
    <glyph glyph-name="Oslash" unicode="&#xd8;" horiz-adv-x="833" 
d="M668 661l96 98l65 -71l-97 -98c39 -61 59 -138 59 -229c0 -238 -135 -376 -374 -376c-92 0 -168 20 -226 58l-98 -99l-66 69l93 94c-51 63 -77 148 -77 254c0 238 135 376 374 376c105 0 190 -26 251 -76zM575 432l-264 -267c24 -25 59 -40 106 -40
c136 0 164 126 164 233c0 25 -1 50 -6 74zM265 253l276 280c-24 39 -63 64 -124 64c-136 0 -164 -126 -164 -239c0 -34 3 -71 12 -105z" />
    <glyph glyph-name="OE" unicode="&#x152;" horiz-adv-x="1000" 
d="M673 582v-149h248v-140h-248v-153h278v-140h-550c-224 -1 -372 142 -372 366c0 135 68 277 201 329c66 26 128 27 198 27h514v-140h-269zM473 134v457c-19 2 -39 6 -58 6c-131 0 -176 -104 -176 -235c0 -111 45 -234 176 -234c19 0 39 4 58 6z" />
    <glyph glyph-name="ordmasculine" unicode="&#xba;" horiz-adv-x="400" 
d="M260 578c0 42 -11 89 -59 89s-60 -47 -60 -89c0 -43 12 -90 60 -90s59 47 59 90zM201 737c102 0 189 -48 189 -159s-87 -160 -189 -160c-103 0 -190 49 -190 160s87 159 190 159z" />
    <glyph glyph-name="ae" unicode="&#xe6;" horiz-adv-x="944" 
d="M216 161c0 -36 29 -66 65 -66c82 0 89 77 89 144c-40 0 -78 2 -104 -11c-28 -14 -50 -32 -50 -67zM547 315h176c0 27 -8 54 -23 75s-37 34 -66 32c-66 -3 -82 -50 -87 -107zM294 324h76c0 44 14 109 -62 106c-46 -2 -65 -48 -64 -68h-179c-1 61 36 102 87 125
c52 24 117 30 173 30c46 0 115 -18 158 -69c48 58 113 69 151 69c204 0 269 -117 269 -304h-360c-1 -65 18 -118 89 -118c53 0 84 22 91 69h180c-4 -65 -45 -110 -91 -138s-108 -41 -167 -41c-76 0 -154 24 -195 108c-45 -88 -136 -108 -227 -108c-113 0 -203 51 -202 166
c2 122 155 173 273 173z" />
    <glyph glyph-name="dotlessi" unicode="&#x131;" horiz-adv-x="333" 
d="M262 0h-190v502h190v-502z" />
    <glyph glyph-name="lslash" unicode="&#x142;" horiz-adv-x="333" 
d="M69 0v278l-87 -58v104l87 58v340h188v-220l88 55v-104l-88 -56v-397h-188z" />
    <glyph glyph-name="oslash" unicode="&#xf8;" 
d="M245 178l159 192c-14 22 -37 37 -70 37c-80 0 -97 -85 -97 -156c0 -25 2 -51 8 -73zM427 304l-152 -184c13 -16 33 -25 59 -25c80 0 97 85 97 156c0 17 -1 35 -4 53zM116 -72l-47 36l67 81c-57 42 -94 110 -94 206c0 185 135 266 292 266c58 0 114 -11 161 -36l62 75
l48 -37l-59 -72c50 -44 80 -108 80 -196c0 -185 -135 -266 -292 -266c-53 0 -103 9 -146 30z" />
    <glyph glyph-name="oe" unicode="&#x153;" horiz-adv-x="1000" 
d="M233 251c0 -71 17 -156 97 -156s97 85 97 156s-17 156 -97 156s-97 -85 -97 -156zM611 315h176c0 27 -8 54 -23 75s-37 34 -66 32c-66 -3 -82 -50 -87 -107zM38 251c0 185 135 266 292 266c73 0 147 -19 206 -82c49 66 116 82 162 82c204 0 269 -117 269 -304h-360
c-1 -65 18 -118 89 -118c53 0 84 22 91 69h180c-4 -65 -45 -110 -91 -138s-108 -41 -167 -41c-88 0 -155 36 -187 90c-65 -75 -130 -90 -192 -90c-157 0 -292 81 -292 266z" />
    <glyph glyph-name="germandbls" unicode="&#xdf;" horiz-adv-x="778" 
d="M65 0v514c0 224 242 224 302 224c45 0 265 0 265 -167c0 -60 -31 -79 -59 -97c-41 -25 -56 -34 -56 -62c0 -29 5 -39 98 -89c69 -37 121 -65 121 -157c0 -96 -72 -179 -229 -179c-49 0 -137 7 -184 58c-34 38 -35 78 -36 103h166c0 -19 6 -34 15 -44
c10 -10 23 -16 37 -16c53 0 54 59 54 69c0 50 -21 61 -99 102c-81 42 -128 66 -128 134c0 35 15 68 71 101c29 17 47 28 47 66c0 40 -25 75 -89 75c-83 0 -112 -55 -112 -129v-506h-184z" />
    <glyph glyph-name="onesuperior" unicode="&#xb9;" horiz-adv-x="400" 
d="M310 283h-130v297c-34 -21 -71 -40 -110 -52v97c48 14 93 37 130 67h110v-409z" />
    <glyph glyph-name="logicalnot" unicode="&#xac;" horiz-adv-x="660" 
d="M61 317v141h538v-378h-146v237h-392z" />
    <glyph glyph-name="mu" unicode="&#xb5;" 
d="M94 -213v715h140v-247c0 -90 7 -149 86 -149c88 0 92 76 92 144v252h139v-502h-116v57c-17 -24 -44 -65 -109 -65c-61 0 -84 30 -98 48v-253h-134z" />
    <glyph glyph-name="mu" unicode="&#x3bc;" 
d="M94 -213v715h140v-247c0 -90 7 -149 86 -149c88 0 92 76 92 144v252h139v-502h-116v57c-17 -24 -44 -65 -109 -65c-61 0 -84 30 -98 48v-253h-134z" />
    <glyph glyph-name="trademark" unicode="&#x2122;" horiz-adv-x="950" 
d="M170 361v291h-108v70h320v-70h-112v-291h-100zM412 361v361h155l58 -245l57 245h154v-361h-91l4 304l-85 -304h-89l-79 304v-304h-84z" />
    <glyph glyph-name="Eth" unicode="&#xd0;" horiz-adv-x="833" 
d="M67 0v350h-62v86h62v286h305c248 0 411 -94 411 -361s-163 -361 -411 -361h-305zM267 350v-210h94c109 0 212 72 212 221s-103 221 -212 221h-94v-146h157v-86h-157z" />
    <glyph glyph-name="onehalf" unicode="&#xbd;" horiz-adv-x="1000" 
d="M330 0h-109l365 707h109zM330 283h-130v297c-34 -21 -71 -40 -110 -52v97c48 14 93 37 130 67h110v-409zM696 83h214v-83h-368v78c51 52 227 154 232 227c2 24 -13 36 -48 36c-29 0 -48 -23 -48 -41h-127c4 94 92 124 187 124c82 0 171 -28 171 -113
c0 -95 -206 -221 -213 -227v-1z" />
    <glyph glyph-name="plusminus" unicode="&#xb1;" horiz-adv-x="660" 
d="M259 136v147h-198v140h198v155h143v-155h197v-140h-197v-147h-143zM61 -40v141h538v-141h-538z" />
    <glyph glyph-name="Thorn" unicode="&#xde;" horiz-adv-x="722" 
d="M73 0v722h200v-102h132c177 0 293 -57 293 -232s-116 -232 -293 -232h-132v-156h-200zM273 480v-184h103c79 0 112 39 112 92s-33 92 -112 92h-103z" />
    <glyph glyph-name="onequarter" unicode="&#xbc;" horiz-adv-x="1000" 
d="M609 163h103v144h-3zM712 0v80h-215v83l191 252h154v-252h63v-83h-63v-80h-130zM345 0h-109l365 707h109zM335 283h-130v297c-34 -21 -71 -40 -110 -52v97c48 14 93 37 130 67h110v-409z" />
    <glyph glyph-name="divide" unicode="&#xf7;" horiz-adv-x="660" 
d="M61 199v140h538v-140h-538zM251 2v151h158v-151h-158zM251 385v151h158v-151h-158z" />
    <glyph glyph-name="brokenbar" unicode="&#xa6;" horiz-adv-x="278" 
d="M68 675h142v-350h-142v350zM68 175h142v-350h-142v350z" />
    <glyph glyph-name="degree" unicode="&#xb0;" horiz-adv-x="400" 
d="M350 557c0 -83 -68 -150 -150 -150c-83 0 -150 67 -150 150c-1 82 67 150 150 150c82 0 150 -68 150 -150zM130 554c1 -42 28 -67 69 -67c40 0 71 25 71 67c0 40 -31 73 -72 73c-40 0 -69 -33 -68 -73z" />
    <glyph glyph-name="thorn" unicode="&#xfe;" 
d="M56 -192v914h190v-291h2c38 59 89 86 163 86c149 0 214 -127 214 -259c0 -147 -74 -273 -235 -273c-56 0 -107 31 -142 75h-2v-252h-190zM338 407c-80 0 -92 -92 -92 -156s12 -156 92 -156s92 92 92 156s-12 156 -92 156z" />
    <glyph glyph-name="threequarters" unicode="&#xbe;" horiz-adv-x="1000" 
d="M406 0h-109l365 707h109zM666 163h113v154h-3zM564 163l191 252h154v-252h63v-83h-63v-80h-130v80h-215v83zM160 456v83c51 0 112 -7 112 55c0 19 -25 30 -51 30c-27 0 -50 -17 -50 -36h-132c2 87 98 119 184 119c74 0 184 -19 184 -106c0 -53 -50 -91 -104 -99v-2
c65 -7 113 -42 113 -106c0 -92 -111 -120 -192 -120c-102 0 -184 27 -196 129h131c0 -16 8 -27 16 -35c10 -9 28 -11 44 -11c34 0 62 10 62 46c0 63 -74 53 -121 53z" />
    <glyph glyph-name="twosuperior" unicode="&#xb2;" horiz-adv-x="400" 
d="M177 366h214v-83h-368v78c51 52 227 154 232 227c2 24 -13 36 -48 36c-29 0 -48 -23 -48 -41h-127c4 94 92 124 187 124c82 0 171 -28 171 -113c0 -95 -206 -221 -213 -227v-1z" />
    <glyph glyph-name="registered" unicode="&#xae;" horiz-adv-x="800" 
d="M399 742c206 0 380 -166 380 -380c0 -208 -170 -378 -380 -378s-378 170 -378 378c0 214 172 380 378 380zM399 677c-169 0 -312 -137 -312 -315c0 -172 141 -312 312 -312c175 0 315 142 315 312c0 175 -142 315 -315 315zM225 152v420h196c70 0 158 0 158 -110
c0 -44 -20 -90 -102 -100v-2c80 -2 84 -42 92 -84c14 -94 14 -98 22 -124h-126c-6 26 -10 54 -14 98c-6 48 -8 66 -60 66h-48v-164h-118zM343 496v-104h44c38 0 78 0 78 52s-44 52 -78 52h-44z" />
    <glyph glyph-name="minus" unicode="&#x2212;" horiz-adv-x="660" 
d="M78 191v120h504v-120h-504z" />
    <glyph glyph-name="eth" unicode="&#xf0;" 
d="M105 616l74 130c41 -9 100 -24 143 -41l54 45l46 -36l-39 -32c184 -95 243 -244 243 -406c0 -216 -134 -291 -292 -291c-157 0 -292 75 -292 247s122 248 248 248c60 0 86 -9 118 -27v4c-47 58 -84 80 -156 115l-64 -55l-58 28l57 48c-27 9 -55 17 -82 23zM237 232
c0 -66 17 -145 97 -145s97 79 97 145c0 67 -17 146 -97 146s-97 -79 -97 -146z" />
    <glyph glyph-name="multiply" unicode="&#xd7;" horiz-adv-x="660" 
d="M68 105l164 164l-164 164l98 98l164 -164l164 164l98 -98l-163 -164l163 -164l-98 -98l-164 163l-164 -163z" />
    <glyph glyph-name="threesuperior" unicode="&#xb3;" horiz-adv-x="400" 
d="M148 456v83c51 0 112 -7 112 55c0 19 -25 30 -51 30c-27 0 -50 -17 -50 -36h-132c2 87 98 119 184 119c74 0 184 -19 184 -106c0 -53 -50 -91 -104 -99v-2c65 -7 113 -42 113 -106c0 -92 -111 -120 -192 -120c-102 0 -184 27 -196 129h131c0 -16 8 -27 16 -35
c10 -9 28 -11 44 -11c34 0 62 10 62 46c0 63 -74 53 -121 53z" />
    <glyph glyph-name="copyright" unicode="&#xa9;" horiz-adv-x="800" 
d="M414 742c207 0 379 -167 379 -379c0 -209 -169 -380 -379 -380c-209 0 -380 170 -380 380c0 213 174 379 380 379zM414 677c-172 0 -314 -139 -314 -314c0 -173 140 -314 314 -314s313 142 313 314c0 173 -140 314 -313 314zM589 442h-111c-5 44 -32 59 -63 59
c-67 0 -85 -70 -85 -145c0 -34 2 -136 87 -136c54 0 60 45 62 64h112c0 -110 -81 -147 -174 -147c-79 0 -122 26 -148 57c-42 50 -50 115 -50 164c0 61 13 120 49 165c42 53 96 63 147 63c59 0 109 -14 141 -52c32 -37 32 -70 33 -92z" />
    <glyph glyph-name="Aacute" unicode="&#xc1;" horiz-adv-x="833" 
d="M8 0l285 722h244l285 -722h-226l-50 145h-289l-49 -145h-200zM304 278h196l-93 303h-3zM616 946l-183 -145h-132l111 145h204z" />
    <glyph glyph-name="Acircumflex" unicode="&#xc2;" horiz-adv-x="833" 
d="M8 0l285 722h244l285 -722h-226l-50 145h-289l-49 -145h-200zM304 278h196l-93 303h-3zM328 946h169l120 -145h-130l-74 77l-74 -77h-130z" />
    <glyph glyph-name="Adieresis" unicode="&#xc4;" horiz-adv-x="833" 
d="M8 0l285 722h244l285 -722h-226l-50 145h-289l-49 -145h-200zM304 278h196l-93 303h-3zM462 801v145h171v-145h-171zM199 801v145h171v-145h-171z" />
    <glyph glyph-name="Agrave" unicode="&#xc0;" horiz-adv-x="833" 
d="M8 0l285 722h244l285 -722h-226l-50 145h-289l-49 -145h-200zM304 278h196l-93 303h-3zM386 801l-186 145h208l107 -145h-129z" />
    <glyph glyph-name="Aring" unicode="&#xc5;" horiz-adv-x="833" 
d="M8 0l285 722h244l285 -722h-226l-50 145h-289l-49 -145h-200zM304 278h196l-93 303h-3zM529 873c0 -62 -50 -112 -112 -112s-112 51 -112 112c0 62 49 113 112 113c62 0 112 -51 112 -113zM470 873c0 30 -24 54 -53 54c-30 0 -53 -24 -53 -54c0 -29 23 -53 53 -53
c29 0 53 24 53 53z" />
    <glyph glyph-name="Atilde" unicode="&#xc3;" horiz-adv-x="833" 
d="M8 0l285 722h244l285 -722h-226l-50 145h-289l-49 -145h-200zM304 278h196l-93 303h-3zM260 801h-78c2 38 17 74 42 101s61 45 104 45c26 0 46 -6 73 -14l77 -22c13 -4 21 -6 31 -6c29 0 32 29 33 39h81c-7 -78 -65 -144 -140 -144c-17 0 -36 5 -50 9l-82 24
c-28 8 -36 8 -43 8c-38 0 -46 -32 -48 -40z" />
    <glyph glyph-name="Ccedilla" unicode="&#xc7;" horiz-adv-x="778" 
d="M528 231h208c-1 -204 -186 -242 -318 -245l-26 -48c7 1 18 3 34 3c69 0 98 -37 98 -74c0 -36 -28 -85 -135 -85c-22 0 -68 1 -114 20l13 45c13 -6 47 -22 93 -22c13 0 53 0 53 39c0 26 -27 37 -50 37c-16 0 -27 -4 -38 -9l-23 20l45 76c-65 5 -125 19 -177 51
c-125 78 -147 223 -147 317c0 99 23 198 91 275c74 84 169 106 274 106c117 0 206 -28 263 -88c58 -62 59 -127 60 -154h-206c-9 73 -60 100 -117 100c-121 0 -158 -111 -158 -243c0 -44 1 -226 156 -226c106 0 117 77 121 105z" />
    <glyph glyph-name="Eacute" unicode="&#xc9;" 
d="M69 0v720h542v-138h-344v-150h324v-138h-324v-154h352v-140h-550zM551 946l-183 -145h-132l111 145h204z" />
    <glyph glyph-name="Ecircumflex" unicode="&#xca;" 
d="M69 0v720h542v-138h-344v-150h324v-138h-324v-154h352v-140h-550zM245 946h169l120 -145h-130l-74 77l-74 -77h-130z" />
    <glyph glyph-name="Edieresis" unicode="&#xcb;" 
d="M69 0v720h542v-138h-344v-150h324v-138h-324v-154h352v-140h-550zM379 801v145h171v-145h-171zM116 801v145h171v-145h-171z" />
    <glyph glyph-name="Egrave" unicode="&#xc8;" 
d="M69 0v720h542v-138h-344v-150h324v-138h-324v-154h352v-140h-550zM303 801l-186 145h208l107 -145h-129z" />
    <glyph glyph-name="Iacute" unicode="&#xcd;" horiz-adv-x="333" 
d="M60 0v722h206v-722h-206zM372 946l-183 -145h-132l111 145h204z" />
    <glyph glyph-name="Icircumflex" unicode="&#xce;" horiz-adv-x="333" 
d="M60 0v722h206v-722h-206zM78 946h169l120 -145h-130l-74 77l-74 -77h-130z" />
    <glyph glyph-name="Idieresis" unicode="&#xcf;" horiz-adv-x="333" 
d="M60 0v722h206v-722h-206zM212 801v145h171v-145h-171zM-51 801v145h171v-145h-171z" />
    <glyph glyph-name="Igrave" unicode="&#xcc;" horiz-adv-x="333" 
d="M60 0v722h206v-722h-206zM136 801l-186 145h208l107 -145h-129z" />
    <glyph glyph-name="Ntilde" unicode="&#xd1;" horiz-adv-x="833" 
d="M67 0v722h276l244 -538l-2 538h175v-722h-270l-249 561l2 -561h-176zM272 801h-78c2 38 17 74 42 101s61 45 104 45c26 0 46 -6 73 -14l77 -22c13 -4 21 -6 31 -6c29 0 32 29 33 39h81c-7 -78 -65 -144 -140 -144c-17 0 -36 5 -50 9l-82 24c-28 8 -36 8 -43 8
c-38 0 -46 -32 -48 -40z" />
    <glyph glyph-name="Oacute" unicode="&#xd3;" horiz-adv-x="833" 
d="M40 358c0 48 8 192 99 284s229 100 282 100c288 0 366 -207 366 -383c0 -288 -204 -376 -376 -376c-192 0 -371 106 -371 375zM246 359c0 -115 34 -229 167 -229c143 0 167 132 167 232c0 101 -24 151 -46 183c-29 40 -76 52 -120 52c-132 0 -168 -114 -168 -238z
M634 946l-183 -145h-132l111 145h204z" />
    <glyph glyph-name="Ocircumflex" unicode="&#xd4;" horiz-adv-x="833" 
d="M40 358c0 48 8 192 99 284s229 100 282 100c288 0 366 -207 366 -383c0 -288 -204 -376 -376 -376c-192 0 -371 106 -371 375zM246 359c0 -115 34 -229 167 -229c143 0 167 132 167 232c0 101 -24 151 -46 183c-29 40 -76 52 -120 52c-132 0 -168 -114 -168 -238z
M328 946h169l120 -145h-130l-74 77l-74 -77h-130z" />
    <glyph glyph-name="Odieresis" unicode="&#xd6;" horiz-adv-x="833" 
d="M40 358c0 48 8 192 99 284s229 100 282 100c288 0 366 -207 366 -383c0 -288 -204 -376 -376 -376c-192 0 -371 106 -371 375zM246 359c0 -115 34 -229 167 -229c143 0 167 132 167 232c0 101 -24 151 -46 183c-29 40 -76 52 -120 52c-132 0 -168 -114 -168 -238z
M462 801v145h171v-145h-171zM199 801v145h171v-145h-171z" />
    <glyph glyph-name="Ograve" unicode="&#xd2;" horiz-adv-x="833" 
d="M40 358c0 48 8 192 99 284s229 100 282 100c288 0 366 -207 366 -383c0 -288 -204 -376 -376 -376c-192 0 -371 106 -371 375zM246 359c0 -115 34 -229 167 -229c143 0 167 132 167 232c0 101 -24 151 -46 183c-29 40 -76 52 -120 52c-132 0 -168 -114 -168 -238z
M386 801l-186 145h208l107 -145h-129z" />
    <glyph glyph-name="Otilde" unicode="&#xd5;" horiz-adv-x="833" 
d="M40 358c0 48 8 192 99 284s229 100 282 100c288 0 366 -207 366 -383c0 -288 -204 -376 -376 -376c-192 0 -371 106 -371 375zM246 359c0 -115 34 -229 167 -229c143 0 167 132 167 232c0 101 -24 151 -46 183c-29 40 -76 52 -120 52c-132 0 -168 -114 -168 -238z
M260 801h-78c2 38 17 74 42 101s61 45 104 45c26 0 46 -6 73 -14l77 -22c13 -4 21 -6 31 -6c29 0 32 29 33 39h81c-7 -78 -65 -144 -140 -144c-17 0 -36 5 -50 9l-82 24c-28 8 -36 8 -43 8c-38 0 -46 -32 -48 -40z" />
    <glyph glyph-name="Scaron" unicode="&#x160;" horiz-adv-x="722" 
d="M42 230h201c1 -29 3 -112 122 -112c17 0 107 0 107 82c0 34 -14 57 -62 70l-177 46c-50 13 -179 47 -179 198c0 117 88 226 304 226c282 0 294 -153 295 -230h-203c0 22 1 100 -95 100c-58 0 -95 -33 -95 -76c0 -53 44 -66 73 -74l135 -35c96 -25 210 -55 210 -208
c0 -161 -138 -233 -319 -233c-75 0 -196 12 -262 86c-53 58 -54 129 -55 160zM361 867l76 79h127l-120 -145h-167l-119 145h126z" />
    <glyph glyph-name="Uacute" unicode="&#xda;" horiz-adv-x="833" 
d="M72 722h202v-429c0 -39 3 -79 23 -109c27 -40 74 -59 123 -59c127 0 144 103 144 175v422h195v-418c0 -80 -11 -167 -56 -220c-70 -86 -199 -103 -290 -103c-341 0 -342 212 -342 330zM634 946l-183 -145h-132l111 145h204z" />
    <glyph glyph-name="Ucircumflex" unicode="&#xdb;" horiz-adv-x="833" 
d="M72 722h202v-429c0 -39 3 -79 23 -109c27 -40 74 -59 123 -59c127 0 144 103 144 175v422h195v-418c0 -80 -11 -167 -56 -220c-70 -86 -199 -103 -290 -103c-341 0 -342 212 -342 330zM328 946h169l120 -145h-130l-74 77l-74 -77h-130z" />
    <glyph glyph-name="Udieresis" unicode="&#xdc;" horiz-adv-x="833" 
d="M72 722h202v-429c0 -39 3 -79 23 -109c27 -40 74 -59 123 -59c127 0 144 103 144 175v422h195v-418c0 -80 -11 -167 -56 -220c-70 -86 -199 -103 -290 -103c-341 0 -342 212 -342 330zM462 801v145h171v-145h-171zM199 801v145h171v-145h-171z" />
    <glyph glyph-name="Ugrave" unicode="&#xd9;" horiz-adv-x="833" 
d="M72 722h202v-429c0 -39 3 -79 23 -109c27 -40 74 -59 123 -59c127 0 144 103 144 175v422h195v-418c0 -80 -11 -167 -56 -220c-70 -86 -199 -103 -290 -103c-341 0 -342 212 -342 330zM386 801l-186 145h208l107 -145h-129z" />
    <glyph glyph-name="Yacute" unicode="&#xdd;" horiz-adv-x="778" 
d="M6 722h232l158 -303l163 303h206l-282 -467v-255h-202v264zM607 946l-183 -145h-132l111 145h204z" />
    <glyph glyph-name="Ydieresis" unicode="&#x178;" horiz-adv-x="778" 
d="M6 722h232l158 -303l163 303h206l-282 -467v-255h-202v264zM435 801v145h171v-145h-171zM172 801v145h171v-145h-171z" />
    <glyph glyph-name="Zcaron" unicode="&#x17d;" 
d="M17 0v159l360 422h-340v139h588v-154l-372 -426h380v-140h-616zM333 867l76 79h127l-120 -145h-167l-119 145h126z" />
    <glyph glyph-name="aacute" unicode="&#xe1;" horiz-adv-x="611" 
d="M560 0h-180c-4 18 -6 40 -6 72c-23 -34 -62 -82 -165 -82c-123 0 -177 67 -177 156c0 137 127 187 343 178c1 54 -6 104 -63 104c-35 0 -68 -19 -67 -76h-180c1 23 1 66 39 105c39 40 117 63 208 63c45 0 141 -6 194 -58c32 -31 44 -78 44 -132v-234c0 -36 1 -46 10 -96z
M374 237c-80 -1 -157 -2 -157 -74c0 -37 24 -68 69 -68c20 0 55 8 74 48c15 32 15 73 14 94zM499 726l-183 -145h-132l111 145h204z" />
    <glyph glyph-name="acircumflex" unicode="&#xe2;" horiz-adv-x="611" 
d="M560 0h-180c-4 18 -6 40 -6 72c-23 -34 -62 -82 -165 -82c-123 0 -177 67 -177 156c0 137 127 187 343 178c1 54 -6 104 -63 104c-35 0 -68 -19 -67 -76h-180c1 23 1 66 39 105c39 40 117 63 208 63c45 0 141 -6 194 -58c32 -31 44 -78 44 -132v-234c0 -36 1 -46 10 -96z
M374 237c-80 -1 -157 -2 -157 -74c0 -37 24 -68 69 -68c20 0 55 8 74 48c15 32 15 73 14 94zM217 726h169l120 -145h-130l-74 77l-74 -77h-130z" />
    <glyph glyph-name="adieresis" unicode="&#xe4;" horiz-adv-x="611" 
d="M560 0h-180c-4 18 -6 40 -6 72c-23 -34 -62 -82 -165 -82c-123 0 -177 67 -177 156c0 137 127 187 343 178c1 54 -6 104 -63 104c-35 0 -68 -19 -67 -76h-180c1 23 1 66 39 105c39 40 117 63 208 63c45 0 141 -6 194 -58c32 -31 44 -78 44 -132v-234c0 -36 1 -46 10 -96z
M374 237c-80 -1 -157 -2 -157 -74c0 -37 24 -68 69 -68c20 0 55 8 74 48c15 32 15 73 14 94zM351 581v145h171v-145h-171zM88 581v145h171v-145h-171z" />
    <glyph glyph-name="agrave" unicode="&#xe0;" horiz-adv-x="611" 
d="M560 0h-180c-4 18 -6 40 -6 72c-23 -34 -62 -82 -165 -82c-123 0 -177 67 -177 156c0 137 127 187 343 178c1 54 -6 104 -63 104c-35 0 -68 -19 -67 -76h-180c1 23 1 66 39 105c39 40 117 63 208 63c45 0 141 -6 194 -58c32 -31 44 -78 44 -132v-234c0 -36 1 -46 10 -96z
M374 237c-80 -1 -157 -2 -157 -74c0 -37 24 -68 69 -68c20 0 55 8 74 48c15 32 15 73 14 94zM293 581l-186 145h208l107 -145h-129z" />
    <glyph glyph-name="aring" unicode="&#xe5;" horiz-adv-x="611" 
d="M560 0h-180c-4 18 -6 40 -6 72c-23 -34 -62 -82 -165 -82c-123 0 -177 67 -177 156c0 137 127 187 343 178c1 54 -6 104 -63 104c-35 0 -68 -19 -67 -76h-180c1 23 1 66 39 105c39 40 117 63 208 63c45 0 141 -6 194 -58c32 -31 44 -78 44 -132v-234c0 -36 1 -46 10 -96z
M374 237c-80 -1 -157 -2 -157 -74c0 -37 24 -68 69 -68c20 0 55 8 74 48c15 32 15 73 14 94zM418 653c0 -62 -50 -112 -112 -112s-112 51 -112 112c0 62 49 113 112 113c62 0 112 -51 112 -113zM359 653c0 30 -24 54 -53 54c-30 0 -53 -24 -53 -54c0 -29 23 -53 53 -53
c29 0 53 24 53 53z" />
    <glyph glyph-name="atilde" unicode="&#xe3;" horiz-adv-x="611" 
d="M560 0h-180c-4 18 -6 40 -6 72c-23 -34 -62 -82 -165 -82c-123 0 -177 67 -177 156c0 137 127 187 343 178c1 54 -6 104 -63 104c-35 0 -68 -19 -67 -76h-180c1 23 1 66 39 105c39 40 117 63 208 63c45 0 141 -6 194 -58c32 -31 44 -78 44 -132v-234c0 -36 1 -46 10 -96z
M374 237c-80 -1 -157 -2 -157 -74c0 -37 24 -68 69 -68c20 0 55 8 74 48c15 32 15 73 14 94zM141 581h-78c2 38 17 74 42 101s61 45 104 45c26 0 46 -6 73 -14l77 -22c13 -4 21 -6 31 -6c29 0 32 29 33 39h81c-7 -78 -65 -144 -140 -144c-17 0 -36 5 -50 9l-82 24
c-28 8 -36 8 -43 8c-38 0 -46 -32 -48 -40z" />
    <glyph glyph-name="ccedilla" unicode="&#xe7;" horiz-adv-x="611" 
d="M387 196h190c1 -104 -70 -201 -243 -208l-27 -50c7 1 18 3 34 3c69 0 99 -37 99 -74c0 -36 -29 -85 -136 -85c-21 0 -68 1 -113 20l12 45c13 -6 47 -22 93 -22c14 0 53 0 53 39c0 26 -27 37 -50 37c-16 0 -26 -4 -38 -9l-23 20l46 78c-142 13 -242 100 -242 264
c0 198 140 265 280 265c54 0 145 -9 203 -72c43 -46 47 -92 49 -121h-186c0 47 -18 86 -67 86c-69 0 -85 -70 -85 -158c0 -130 36 -160 83 -160c64 0 68 64 68 102z" />
    <glyph glyph-name="eacute" unicode="&#xe9;" horiz-adv-x="611" 
d="M571 213h-360c0 -27 0 -122 96 -122c50 0 81 26 86 73h175c-14 -126 -132 -175 -262 -175c-175 0 -269 88 -269 254c0 168 82 277 267 277c140 0 205 -57 239 -128c22 -43 28 -91 28 -179zM213 315h181c-2 29 -8 105 -90 105s-89 -81 -91 -105zM499 726l-183 -145h-132
l111 145h204z" />
    <glyph glyph-name="ecircumflex" unicode="&#xea;" horiz-adv-x="611" 
d="M571 213h-360c0 -27 0 -122 96 -122c50 0 81 26 86 73h175c-14 -126 -132 -175 -262 -175c-175 0 -269 88 -269 254c0 168 82 277 267 277c140 0 205 -57 239 -128c22 -43 28 -91 28 -179zM213 315h181c-2 29 -8 105 -90 105s-89 -81 -91 -105zM217 726h169l120 -145
h-130l-74 77l-74 -77h-130z" />
    <glyph glyph-name="edieresis" unicode="&#xeb;" horiz-adv-x="611" 
d="M571 213h-360c0 -27 0 -122 96 -122c50 0 81 26 86 73h175c-14 -126 -132 -175 -262 -175c-175 0 -269 88 -269 254c0 168 82 277 267 277c140 0 205 -57 239 -128c22 -43 28 -91 28 -179zM213 315h181c-2 29 -8 105 -90 105s-89 -81 -91 -105zM351 581v145h171v-145
h-171zM88 581v145h171v-145h-171z" />
    <glyph glyph-name="egrave" unicode="&#xe8;" horiz-adv-x="611" 
d="M571 213h-360c0 -27 0 -122 96 -122c50 0 81 26 86 73h175c-14 -126 -132 -175 -262 -175c-175 0 -269 88 -269 254c0 168 82 277 267 277c140 0 205 -57 239 -128c22 -43 28 -91 28 -179zM213 315h181c-2 29 -8 105 -90 105s-89 -81 -91 -105zM293 581l-186 145h208
l107 -145h-129z" />
    <glyph glyph-name="iacute" unicode="&#xed;" horiz-adv-x="333" 
d="M262 0h-190v502h190v-502zM384 726l-183 -145h-132l111 145h204z" />
    <glyph glyph-name="icircumflex" unicode="&#xee;" horiz-adv-x="333" 
d="M262 0h-190v502h190v-502zM78 726h169l120 -145h-130l-74 77l-74 -77h-130z" />
    <glyph glyph-name="idieresis" unicode="&#xef;" horiz-adv-x="333" 
d="M262 0h-190v502h190v-502zM212 581v145h171v-145h-171zM-51 581v145h171v-145h-171z" />
    <glyph glyph-name="igrave" unicode="&#xec;" horiz-adv-x="333" 
d="M262 0h-190v502h190v-502zM136 581l-186 145h208l107 -145h-129z" />
    <glyph glyph-name="ntilde" unicode="&#xf1;" 
d="M64 0v395l-5 107h188l2 -77c23 38 63 88 167 88c184 0 184 -140 184 -209v-304h-188v288c0 35 0 106 -77 106c-84 0 -84 -88 -84 -106v-288h-187zM159 581h-78c2 38 17 74 42 101s61 45 104 45c26 0 46 -6 73 -14l77 -22c13 -4 21 -6 31 -6c29 0 32 29 33 39h81
c-7 -78 -65 -144 -140 -144c-17 0 -36 5 -50 9l-82 24c-28 8 -36 8 -43 8c-38 0 -46 -32 -48 -40z" />
    <glyph glyph-name="oacute" unicode="&#xf3;" 
d="M38 253c0 154 95 266 294 266c163 0 290 -82 290 -260c0 -73 -21 -147 -73 -199c-42 -41 -104 -72 -207 -72c-111 0 -183 27 -232 74c-58 55 -72 130 -72 191zM233 252c0 -33 3 -82 24 -119c22 -38 56 -40 73 -40c82 0 98 89 98 159c0 87 -21 160 -96 160
c-83 0 -99 -85 -99 -160zM551 726l-183 -145h-132l111 145h204z" />
    <glyph glyph-name="ocircumflex" unicode="&#xf4;" 
d="M38 253c0 154 95 266 294 266c163 0 290 -82 290 -260c0 -73 -21 -147 -73 -199c-42 -41 -104 -72 -207 -72c-111 0 -183 27 -232 74c-58 55 -72 130 -72 191zM233 252c0 -33 3 -82 24 -119c22 -38 56 -40 73 -40c82 0 98 89 98 159c0 87 -21 160 -96 160
c-83 0 -99 -85 -99 -160zM257 726h169l120 -145h-130l-74 77l-74 -77h-130z" />
    <glyph glyph-name="odieresis" unicode="&#xf6;" 
d="M38 253c0 154 95 266 294 266c163 0 290 -82 290 -260c0 -73 -21 -147 -73 -199c-42 -41 -104 -72 -207 -72c-111 0 -183 27 -232 74c-58 55 -72 130 -72 191zM233 252c0 -33 3 -82 24 -119c22 -38 56 -40 73 -40c82 0 98 89 98 159c0 87 -21 160 -96 160
c-83 0 -99 -85 -99 -160zM379 581v145h171v-145h-171zM116 581v145h171v-145h-171z" />
    <glyph glyph-name="ograve" unicode="&#xf2;" 
d="M38 253c0 154 95 266 294 266c163 0 290 -82 290 -260c0 -73 -21 -147 -73 -199c-42 -41 -104 -72 -207 -72c-111 0 -183 27 -232 74c-58 55 -72 130 -72 191zM233 252c0 -33 3 -82 24 -119c22 -38 56 -40 73 -40c82 0 98 89 98 159c0 87 -21 160 -96 160
c-83 0 -99 -85 -99 -160zM303 581l-186 145h208l107 -145h-129z" />
    <glyph glyph-name="otilde" unicode="&#xf5;" 
d="M38 253c0 154 95 266 294 266c163 0 290 -82 290 -260c0 -73 -21 -147 -73 -199c-42 -41 -104 -72 -207 -72c-111 0 -183 27 -232 74c-58 55 -72 130 -72 191zM233 252c0 -33 3 -82 24 -119c22 -38 56 -40 73 -40c82 0 98 89 98 159c0 87 -21 160 -96 160
c-83 0 -99 -85 -99 -160zM165 581h-78c2 38 17 74 42 101s61 45 104 45c26 0 46 -6 73 -14l77 -22c13 -4 21 -6 31 -6c29 0 32 29 33 39h81c-7 -78 -65 -144 -140 -144c-17 0 -36 5 -50 9l-82 24c-28 8 -36 8 -43 8c-38 0 -46 -32 -48 -40z" />
    <glyph glyph-name="scaron" unicode="&#x161;" horiz-adv-x="556" 
d="M29 163h186c0 -9 0 -28 8 -45c7 -16 23 -31 55 -31c43 0 57 29 57 51c0 35 -29 45 -71 56l-102 29c-31 8 -122 33 -122 136c0 50 27 92 60 114c44 31 104 43 178 43c108 0 221 -29 229 -169h-178c0 15 0 34 -7 49c-8 16 -22 27 -52 27c-29 0 -56 -13 -56 -44
c0 -29 21 -40 51 -48l134 -37c48 -13 118 -40 118 -138c0 -170 -197 -170 -241 -170c-102 0 -249 15 -247 177zM278 647l76 79h127l-120 -145h-167l-119 145h126z" />
    <glyph glyph-name="uacute" unicode="&#xfa;" 
d="M64 502h187v-293c0 -28 0 -98 75 -98c79 0 79 72 79 100v291h188v-415c2 -43 2 -48 3 -87h-185l-4 78c-51 -81 -114 -87 -158 -87c-174 0 -185 132 -185 228v283zM551 726l-183 -145h-132l111 145h204z" />
    <glyph glyph-name="ucircumflex" unicode="&#xfb;" 
d="M64 502h187v-293c0 -28 0 -98 75 -98c79 0 79 72 79 100v291h188v-415c2 -43 2 -48 3 -87h-185l-4 78c-51 -81 -114 -87 -158 -87c-174 0 -185 132 -185 228v283zM245 726h169l120 -145h-130l-74 77l-74 -77h-130z" />
    <glyph glyph-name="udieresis" unicode="&#xfc;" 
d="M64 502h187v-293c0 -28 0 -98 75 -98c79 0 79 72 79 100v291h188v-415c2 -43 2 -48 3 -87h-185l-4 78c-51 -81 -114 -87 -158 -87c-174 0 -185 132 -185 228v283zM379 581v145h171v-145h-171zM116 581v145h171v-145h-171z" />
    <glyph glyph-name="ugrave" unicode="&#xf9;" 
d="M64 502h187v-293c0 -28 0 -98 75 -98c79 0 79 72 79 100v291h188v-415c2 -43 2 -48 3 -87h-185l-4 78c-51 -81 -114 -87 -158 -87c-174 0 -185 132 -185 228v283zM303 581l-186 145h208l107 -145h-129z" />
    <glyph glyph-name="yacute" unicode="&#xfd;" horiz-adv-x="611" 
d="M595 502l-273 -692h-175l71 174l-210 518h203l100 -349l109 349h175zM523 726l-183 -145h-132l111 145h204z" />
    <glyph glyph-name="ydieresis" unicode="&#xff;" horiz-adv-x="611" 
d="M595 502l-273 -692h-175l71 174l-210 518h203l100 -349l109 349h175zM351 581v145h171v-145h-171zM88 581v145h171v-145h-171z" />
    <glyph glyph-name="zcaron" unicode="&#x17e;" horiz-adv-x="556" 
d="M40 0v127l241 253h-230v121h444v-124l-244 -258h256v-119h-467zM278 647l76 79h127l-120 -145h-167l-119 145h126z" />
    <glyph glyph-name="Euro" unicode="&#x20ac;" 
d="M427 211h-124c9 -51 37 -93 90 -93c58 0 71 30 77 51h189c-13 -63 -47 -109 -94 -139c-46 -30 -106 -44 -173 -44c-156 0 -244 94 -278 225h-114l42 108h56c0 10 -1 16 -1 26c0 7 1 19 1 26h-93l42 108h65c32 135 120 234 280 234c153 0 240 -64 262 -187h-187
c-4 20 -10 33 -22 42c-11 9 -27 13 -52 13c-56 0 -82 -46 -91 -102h231l-43 -108h-197v-26v-26h177z" />
    </font>
</defs>
</svg>
