<?xml version="1.0" standalone="no"?>
<!DOCTYPE svg PUBLIC "-//W3C//DTD SVG 1.1//EN" "http://www.w3.org/Graphics/SVG/1.1/DTD/svg11.dtd" >
<svg>
<metadata>
Created by FontForge 20120731 at Tue Jul 23 13:30:21 2019
 By www-data
Part of the digitally encoded machine readable outline data for producing the Typefaces provided is copyrighted (c) 2007 Linotype GmbH, www.linotype.com. All rights reserved. This software is the property of Linotype GmbH, and may not be reproduced, used, displayed, modified, disclosed or transferred without the express written approval of Linotype GmbH.  The digitally encoded machine readable software for producing the Typefaces licensed to you is copyrighted (c) 1987, 1991, 1993, 1994, 1998 Adobe Systems. All Rights Reserved. This software is the property of Adobe Systems Incorporated and its licensors, and may not be reproduced, used, displayed, modified, disclosed or transferred without the express written approval of Adobe. Univers is a trademark of Linotype GmbH and may be registered in certain jurisdictions. This typeface is original artwork of Adrian Frutiger. The design may be protected in certain jurisdictions.
</metadata>
<defs>
<font id="UniversLTPro-45Light" horiz-adv-x="556" >
  <font-face 
    font-family="Univers LT Pro"
    font-weight="300"
    font-stretch="normal"
    units-per-em="1000"
    panose-1="2 11 4 3 2 2 2 2 2 4"
    ascent="724"
    descent="-276"
    x-height="502"
    cap-height="725"
    bbox="-151 -250 1000 962"
    underline-thickness="50"
    underline-position="-50"
    stemh="50"
    stemv="55"
    unicode-range="U+000D-FB02"
  />
<missing-glyph horiz-adv-x="512" 
d="M278 117h-56v67h56v-67zM271 234h-46l-2 17c0 37 4 64 13 81s23 36 46 59c43 40 50 59 50 83c0 48 -35 85 -76 85s-74 -27 -82 -95l-50 8c9 96 63 137 135 137s124 -51 124 -131c0 -43 -12 -73 -63 -120c-25 -22 -39 -39 -43 -52s-6 -37 -6 -72zM50 50h412v617h-412v-617
zM0 718h512v-718h-512v718z" />
    <glyph glyph-name="napostrophe" unicode="&#x22;n" 
d="M140 289v-289h-60v389c0 39 -3 79 -5 113h62l3 -74l2 -2c35 62 92 91 157 91c164 0 177 -145 177 -203v-314h-60v324c0 87 -50 138 -132 138c-99 0 -144 -83 -144 -173zM74 722h66l-64 -146h-40z" />
    <glyph glyph-name="IJ" unicode="IJ" horiz-adv-x="765" 
d="M172 0h-65v725h65v-725zM278 178h70c7 -78 59 -133 137 -133c92 0 127 93 127 180v497h65v-487c0 -53 -3 -122 -50 -179c-41 -50 -101 -71 -163 -71c-117 0 -172 88 -186 193z" />
    <glyph glyph-name="fi" unicode="fi" 
d="M406 502h60v-502h-60v502zM471 722v-75h-70v75h70zM183 0h-60v447h-101v55h101v107c0 86 35 125 121 125c19 0 39 -7 57 -11v-48c-12 2 -25 4 -37 4c-82 0 -84 -41 -81 -113v-64h114v-55h-114v-447z" />
    <glyph glyph-name="fl" unicode="fl" 
d="M185 0h-60v447h-101v55h101v107c0 86 35 125 121 125c19 0 39 -7 57 -11v-48c-12 2 -25 4 -37 4c-82 0 -84 -41 -81 -113v-64h114v-55h-114v-447zM470 722v-722h-60v722h60z" />
    <glyph glyph-name="ij" unicode="ij" horiz-adv-x="423" 
d="M81 502h60v-502h-60v502zM146 722v-75h-70v75h70zM204 -192v55c88 -1 78 23 78 154v485h60v-524c0 -129 -3 -174 -138 -170zM347 722v-75h-70v75h70z" />
    <glyph glyph-name=".notdef" horiz-adv-x="512" 
d="M278 117h-56v67h56v-67zM271 234h-46l-2 17c0 37 4 64 13 81s23 36 46 59c43 40 50 59 50 83c0 48 -35 85 -76 85s-74 -27 -82 -95l-50 8c9 96 63 137 135 137s124 -51 124 -131c0 -43 -12 -73 -63 -120c-25 -22 -39 -39 -43 -52s-6 -37 -6 -72zM50 50h412v617h-412v-617
zM0 718h512v-718h-512v718z" />
    <glyph glyph-name=".null" horiz-adv-x="500" 
 />
    <glyph glyph-name="CR" unicode="&#xd;" horiz-adv-x="0" 
 />
    <glyph glyph-name="space" unicode=" " horiz-adv-x="278" 
 />
    <glyph glyph-name="exclam" unicode="!" horiz-adv-x="389" 
d="M223 171h-56l-13 551h82zM155 86h80v-86h-80v86z" />
    <glyph glyph-name="quotedbl" unicode="&#x22;" horiz-adv-x="278" 
d="M58 496v226h52v-226h-52zM168 496v226h52v-226h-52z" />
    <glyph glyph-name="numbersign" unicode="#" 
d="M361 423h-135l-22 -137h137zM527 483v-60h-107l-20 -137h101v-60h-110l-31 -226h-59l31 226h-136l-34 -226h-58l34 226h-109v60h118l20 137h-111v60h119l32 209h59l-31 -209h135l30 209h59l-31 -209h99z" />
    <glyph glyph-name="dollar" unicode="$" 
d="M301 309v-264c69 5 144 49 144 131c0 87 -80 110 -144 133zM301 -15v-53h-50v53c-105 3 -215 60 -209 191h70c-6 -89 62 -126 139 -131v275c-52 22 -196 47 -196 195c0 106 102 192 196 192v48h50v-48c98 0 195 -62 202 -175h-70c-1 85 -72 115 -132 117v-275
c104 -33 214 -64 214 -200c0 -130 -109 -189 -214 -189zM251 389v258c-65 -1 -126 -51 -126 -131c0 -78 64 -108 126 -127z" />
    <glyph glyph-name="percent" unicode="%" horiz-adv-x="1000" 
d="M277 662c-78 0 -104 -79 -104 -144s26 -144 104 -144s104 79 104 144s-26 144 -104 144zM653 707h58l-390 -707h-58zM277 707c101 0 159 -90 159 -189s-58 -189 -159 -189s-159 90 -159 189s58 189 159 189zM723 363c101 0 159 -90 159 -189s-58 -189 -159 -189
s-159 90 -159 189s58 189 159 189zM723 318c-78 0 -104 -79 -104 -144s26 -144 104 -144s104 79 104 144s-26 144 -104 144z" />
    <glyph glyph-name="ampersand" unicode="&#x26;" horiz-adv-x="722" 
d="M501 138l-226 243c-48 -31 -151 -106 -151 -169c0 -105 91 -167 188 -167c81 0 135 36 189 93zM287 461c41 40 101 81 101 144c0 49 -44 72 -88 72c-47 0 -91 -20 -91 -72s45 -108 78 -144zM230 422c1 2 3 3 4 4c-44 51 -95 108 -95 180c0 89 79 131 158 131
c78 0 161 -39 161 -128c0 -86 -69 -142 -132 -190l211 -225c33 75 50 186 46 267h70c-10 -105 -17 -219 -72 -312l137 -149h-93l-86 96c-60 -71 -128 -111 -221 -111c-146 0 -264 81 -264 213c0 110 95 170 176 224z" />
    <glyph glyph-name="quotesingle" unicode="'" horiz-adv-x="278" 
d="M113 496v226h52v-226h-52z" />
    <glyph glyph-name="parenleft" unicode="(" horiz-adv-x="278" 
d="M234 -96h-51c-49 131 -107 265 -107 409c0 141 57 279 108 409h50c-53 -135 -88 -280 -88 -409c0 -137 42 -291 88 -409z" />
    <glyph glyph-name="parenright" unicode=")" horiz-adv-x="278" 
d="M95 -96h-51c46 118 88 272 88 409c0 129 -35 274 -88 409h50c51 -130 108 -268 108 -409c0 -144 -58 -278 -107 -409z" />
    <glyph glyph-name="asterisk" unicode="*" 
d="M211 722l68 -136l67 136l51 -28l-88 -127l143 12v-58l-142 11l86 -129l-52 -27l-65 138l-68 -140l-50 29l87 128l-144 -10v58l145 -12l-91 126z" />
    <glyph glyph-name="plus" unicode="+" horiz-adv-x="660" 
d="M300 281v221h60v-221h220v-60h-220v-221h-60v221h-220v60h220z" />
    <glyph glyph-name="comma" unicode="," horiz-adv-x="278" 
d="M102 81h81l-72 -205h-52z" />
    <glyph glyph-name="hyphen" unicode="-" horiz-adv-x="278" 
d="M13 237v60h252v-60h-252z" />
    <glyph glyph-name="period" unicode="." horiz-adv-x="278" 
d="M179 0h-80v86h80v-86z" />
    <glyph glyph-name="slash" unicode="/" horiz-adv-x="278" 
d="M-23 -96l259 818h65l-261 -818h-63z" />
    <glyph glyph-name="zero" unicode="0" 
d="M278 647c-147 0 -160 -198 -160 -301s13 -301 160 -301s160 198 160 301s-13 301 -160 301zM278 707c189 0 230 -185 230 -361s-41 -361 -230 -361s-230 185 -230 361s41 361 230 361z" />
    <glyph glyph-name="one" unicode="1" 
d="M116 518v65c59 24 114 64 159 109h62v-692h-65v622c-46 -44 -100 -77 -156 -104z" />
    <glyph glyph-name="two" unicode="2" 
d="M485 0h-435v68c90 81 356 332 356 456c0 81 -64 123 -139 123c-83 0 -140 -57 -140 -138h-70c0 122 92 198 212 198c111 0 207 -59 207 -179c0 -162 -241 -365 -348 -468h357v-60z" />
    <glyph glyph-name="three" unicode="3" 
d="M225 329v63c89 -10 191 26 191 130c0 80 -72 125 -153 125c-88 0 -142 -46 -151 -126h-70c0 117 104 186 212 186c117 0 232 -55 232 -189c0 -84 -64 -140 -141 -156v-2c88 -19 152 -82 152 -175c0 -130 -121 -200 -237 -200c-122 0 -224 66 -228 198h70
c1 -86 77 -138 157 -138c92 0 168 49 168 148c0 111 -107 150 -202 136z" />
    <glyph glyph-name="four" unicode="4" 
d="M347 0v161h-325v63l304 468h86v-477h111v-54h-111v-161h-65zM347 215v412h-2l-268 -412h270z" />
    <glyph glyph-name="five" unicode="5" 
d="M76 291l16 401h381v-60h-319l-11 -247l2 -2c39 45 90 73 152 73c130 0 211 -107 211 -231c0 -133 -85 -240 -222 -240c-117 0 -220 54 -224 185h70c4 -83 68 -125 147 -125c108 0 159 83 159 183s-51 168 -155 168c-66 0 -126 -40 -140 -105h-67z" />
    <glyph glyph-name="six" unicode="6" 
d="M296 394c-110 0 -169 -80 -169 -183c0 -87 66 -166 156 -166c102 0 158 73 158 171c0 91 -42 178 -145 178zM297 707c113 0 203 -57 205 -177h-70c-3 72 -61 117 -132 117c-166 0 -185 -181 -185 -311h2c31 76 101 113 182 113c137 0 212 -97 212 -229
s-82 -235 -218 -235c-193 0 -248 160 -248 326c0 177 28 396 252 396z" />
    <glyph glyph-name="seven" unicode="7" 
d="M492 692v-58l-269 -634h-76l277 632h-373v60h441z" />
    <glyph glyph-name="eight" unicode="8" 
d="M194 359v2c-81 8 -141 78 -141 160c0 128 114 186 225 186s225 -58 225 -186c0 -84 -60 -142 -139 -160v-1c92 -24 149 -80 149 -172c0 -140 -119 -203 -235 -203s-235 63 -235 203c-1 89 61 152 151 171zM118 521c0 -86 68 -130 160 -130s160 44 160 130
c0 93 -83 131 -160 131s-160 -38 -160 -131zM113 188c0 -99 79 -143 165 -143s165 44 165 143s-79 143 -165 143s-165 -44 -165 -143z" />
    <glyph glyph-name="nine" unicode="9" 
d="M267 647c-103 0 -152 -75 -152 -171c0 -91 57 -155 148 -155c96 0 167 68 167 164c0 95 -68 162 -163 162zM47 170h70c3 -91 65 -125 150 -125c158 0 175 222 175 327h-2c-34 -67 -103 -106 -183 -106c-125 0 -212 91 -212 215c0 132 87 226 221 226
c201 0 246 -170 246 -342c0 -186 -42 -380 -263 -380c-123 0 -193 75 -202 185z" />
    <glyph glyph-name="colon" unicode=":" horiz-adv-x="278" 
d="M99 502h80v-86h-80v86zM99 86h80v-86h-80v86z" />
    <glyph glyph-name="semicolon" unicode=";" horiz-adv-x="278" 
d="M121 81h81l-72 -205h-52zM107 502h80v-86h-80v86z" />
    <glyph glyph-name="less" unicode="&#x3c;" horiz-adv-x="660" 
d="M159 251l421 -197v-64l-500 235v53l500 223v-64z" />
    <glyph glyph-name="equal" unicode="=" horiz-adv-x="660" 
d="M580 378v-60h-500v60h500zM580 184v-60h-500v60h500z" />
    <glyph glyph-name="greater" unicode="&#x3e;" horiz-adv-x="660" 
d="M501 251l-421 197v64l500 -235v-53l-500 -223v64z" />
    <glyph glyph-name="question" unicode="?" horiz-adv-x="500" 
d="M234 169h-60v108c3 95 186 153 186 279c0 94 -80 121 -162 121c-32 0 -64 -6 -94 -15v61c36 11 73 14 110 14c113 0 211 -57 211 -179c0 -84 -47 -129 -103 -183c-71 -74 -93 -78 -88 -136v-70zM164 86h80v-86h-80v86z" />
    <glyph glyph-name="at" unicode="@" horiz-adv-x="800" 
d="M257 290c0 -48 27 -94 77 -94c91 1 164 169 164 258c0 39 -28 71 -68 71c-106 0 -173 -145 -173 -235zM539 520l15 46h66l-100 -300c-15 -44 -23 -77 17 -77c82 0 157 132 157 238c0 161 -130 260 -280 260c-184 0 -314 -150 -314 -330c0 -179 137 -322 316 -322
c102 0 203 49 263 135h58c-62 -115 -191 -185 -321 -185c-213 0 -376 170 -376 379c0 206 170 373 372 373c190 0 342 -132 342 -313c0 -157 -125 -290 -231 -290c-35 0 -74 16 -85 52c-30 -31 -77 -50 -119 -50c-85 0 -137 67 -137 149c0 133 99 300 246 300
c46 0 91 -22 111 -65z" />
    <glyph glyph-name="A" unicode="A" horiz-adv-x="667" 
d="M173 255h315l-156 407zM76 0h-67l286 722h76l288 -722h-71l-77 195h-359z" />
    <glyph glyph-name="B" unicode="B" horiz-adv-x="667" 
d="M165 344v-284h159c124 -2 196 31 196 142c0 123 -99 142 -235 142h-120zM165 404h157c84 0 168 33 168 131c0 105 -86 126 -171 127h-154v-258zM375 0h-275v722l259 -1c107 0 201 -65 201 -180c0 -80 -58 -145 -134 -163v-2c98 -16 164 -80 164 -183
c0 -95 -58 -193 -215 -193z" />
    <glyph glyph-name="C" unicode="C" horiz-adv-x="667" 
d="M612 553h-70c-12 88 -88 124 -170 124c-185 0 -241 -168 -241 -316s56 -316 241 -316c80 0 160 40 178 130h70c-21 -121 -132 -190 -248 -190c-219 0 -311 176 -311 376c0 198 93 376 311 376c118 0 230 -54 240 -184z" />
    <glyph glyph-name="D" unicode="D" horiz-adv-x="722" 
d="M156 60h146c203 0 286 119 286 301c0 213 -125 307 -330 301h-102v-602zM91 722h195c237 0 372 -122 372 -361s-135 -361 -372 -361h-195v722z" />
    <glyph glyph-name="E" unicode="E" horiz-adv-x="611" 
d="M546 0h-444v722h429v-60h-364v-259h350v-60h-350v-283h379v-60z" />
    <glyph glyph-name="F" unicode="F" 
d="M160 0h-65v722h408v-60h-343v-255h331v-60h-331v-347z" />
    <glyph glyph-name="G" unicode="G" horiz-adv-x="722" 
d="M385 368h246v-338c-87 -34 -166 -45 -259 -45c-197 0 -308 154 -308 376c0 186 99 376 308 376c120 0 243 -65 254 -193h-74c-13 92 -94 133 -180 133c-173 0 -238 -166 -238 -316c0 -184 77 -316 272 -316c54 0 109 15 160 30v233h-181v60z" />
    <glyph glyph-name="H" unicode="H" horiz-adv-x="722" 
d="M164 0h-65v722h65v-317h394v317h65v-722h-65v345h-394v-345z" />
    <glyph glyph-name="I" unicode="I" horiz-adv-x="278" 
d="M172 0h-65v725h65v-725z" />
    <glyph glyph-name="J" unicode="J" horiz-adv-x="500" 
d="M13 178h70c7 -78 59 -133 137 -133c92 0 127 93 127 180v497h65v-487c0 -53 -3 -122 -50 -179c-41 -50 -101 -71 -163 -71c-117 0 -172 88 -186 193z" />
    <glyph glyph-name="K" unicode="K" horiz-adv-x="611" 
d="M170 0h-64v722h64l1 -318l323 318h82l-333 -326l363 -396h-89l-346 377z" />
    <glyph glyph-name="L" unicode="L" 
d="M528 0h-428v722h65v-662h363v-60z" />
    <glyph glyph-name="M" unicode="M" horiz-adv-x="944" 
d="M162 0h-65v722h104l271 -629l277 629h99v-722h-65v667h-2l-276 -667h-65l-276 664h-2v-664z" />
    <glyph glyph-name="N" unicode="N" horiz-adv-x="722" 
d="M92 0v722h74l398 -635h2v635h65v-722h-82l-390 624h-2v-624h-65z" />
    <glyph glyph-name="O" unicode="O" horiz-adv-x="778" 
d="M137 361c0 -158 72 -316 252 -316s252 158 252 316s-72 316 -252 316s-252 -158 -252 -316zM711 361c0 -225 -115 -376 -322 -376s-322 151 -322 376s115 376 322 376s322 -151 322 -376z" />
    <glyph glyph-name="P" unicode="P" horiz-adv-x="611" 
d="M165 662v-288h158c97 0 183 31 183 144s-86 144 -183 144h-158zM165 0h-65v722h181c139 3 295 -32 295 -204s-156 -207 -295 -204h-116v-314z" />
    <glyph glyph-name="Q" unicode="Q" horiz-adv-x="778" 
d="M738 0h-147c-31 0 -89 10 -128 -1c-25 -8 -53 -14 -74 -14c-207 0 -322 151 -322 376s115 376 322 376s322 -151 322 -376c0 -117 -41 -237 -132 -306l2 -2c50 8 104 5 157 7v-60zM137 361c0 -158 72 -316 252 -316s252 158 252 316s-72 316 -252 316
s-252 -158 -252 -316z" />
    <glyph glyph-name="R" unicode="R" horiz-adv-x="667" 
d="M168 404h139c92 0 206 6 206 129c0 139 -130 129 -199 129h-146v-258zM168 344v-344h-65v722h236c63 0 115 -4 170 -38c50 -30 74 -82 74 -151c0 -78 -55 -134 -139 -155v-2c92 -15 112 -77 121 -161c13 -117 9 -171 38 -215h-75c-17 48 -21 99 -25 150
c-15 165 -25 194 -156 194h-179z" />
    <glyph glyph-name="S" unicode="S" horiz-adv-x="611" 
d="M553 190c0 -157 -135 -205 -280 -205c-115 0 -212 84 -215 203h70c2 -111 84 -143 181 -143c81 0 174 47 174 139c0 72 -52 106 -113 126c-117 39 -295 76 -295 232c0 126 116 195 230 195c95 0 219 -33 235 -172h-70c-2 89 -83 112 -157 112c-75 0 -168 -38 -168 -126
c0 -205 408 -112 408 -361z" />
    <glyph glyph-name="T" unicode="T" 
d="M248 0l-1 662h-233v60h528v-60h-229l-1 -662h-64z" />
    <glyph glyph-name="U" unicode="U" horiz-adv-x="722" 
d="M97 722h65v-467c5 -131 80 -210 199 -210s194 79 199 210v467h65v-468c-2 -155 -89 -269 -264 -269s-262 114 -264 269v468z" />
    <glyph glyph-name="V" unicode="V" horiz-adv-x="611" 
d="M77 722l232 -657h2l229 657h65l-261 -722h-74l-264 722h71z" />
    <glyph glyph-name="W" unicode="W" horiz-adv-x="1000" 
d="M497 655l-207 -655h-92l-188 722h69l168 -657h2l211 657h79l220 -657h2l167 657h63l-190 -722h-89l-213 655h-2z" />
    <glyph glyph-name="X" unicode="X" horiz-adv-x="611" 
d="M301 323l-219 -323h-74l257 372l-244 350h85l204 -304l212 304h73l-250 -350l258 -372h-83z" />
    <glyph glyph-name="Y" unicode="Y" horiz-adv-x="611" 
d="M274 0v312l-266 410h83l221 -349l221 349h70l-264 -408v-314h-65z" />
    <glyph glyph-name="Z" unicode="Z" 
d="M517 0h-478v60l401 602h-401v60h478v-60l-402 -602h402v-60z" />
    <glyph glyph-name="bracketleft" unicode="[" horiz-adv-x="278" 
d="M222 -96h-137v818h137v-50h-72v-718h72v-50z" />
    <glyph glyph-name="backslash" unicode="\" horiz-adv-x="278" 
d="M258 0l-302 722h65l302 -722h-65z" />
    <glyph glyph-name="bracketright" unicode="]" horiz-adv-x="278" 
d="M56 722h137v-818h-137v50h72v718h-72v50z" />
    <glyph glyph-name="asciicircum" unicode="^" horiz-adv-x="660" 
d="M132 239h-58l230 453h52l231 -453h-57l-201 392z" />
    <glyph glyph-name="underscore" unicode="_" horiz-adv-x="500" 
d="M500 -124h-500v56h500v-56z" />
    <glyph glyph-name="grave" unicode="`" horiz-adv-x="278" 
d="M20 707h80l91 -143h-44z" />
    <glyph glyph-name="a" unicode="a" horiz-adv-x="500" 
d="M101 140c0 -68 52 -100 113 -100c131 0 156 108 150 213c-85 -3 -263 13 -263 -113zM364 308v46c-6 82 -48 108 -119 108c-63 0 -115 -19 -123 -87h-64c15 103 92 142 188 142c111 0 180 -51 178 -166v-238c-1 -39 3 -79 5 -113h-62l-2 74h-2l-3 -7
c-22 -42 -89 -82 -157 -82c-93 0 -167 57 -167 155c0 68 41 120 101 145c67 29 154 19 227 23z" />
    <glyph glyph-name="b" unicode="b" 
d="M292 462c-117 0 -162 -99 -162 -201c0 -114 40 -221 171 -221c115 0 144 125 144 218c0 96 -39 204 -153 204zM130 74l-3 -74h-62c2 34 5 74 5 113v609h60v-294l2 -2c35 59 105 91 172 91c149 0 206 -134 206 -264c0 -126 -57 -268 -203 -268c-73 0 -134 33 -175 93z" />
    <glyph glyph-name="c" unicode="c" horiz-adv-x="500" 
d="M462 348h-65c-5 77 -54 114 -137 114c-92 0 -149 -96 -149 -210c0 -115 57 -212 149 -212c78 0 132 48 137 117h65c-16 -115 -82 -172 -196 -172c-150 0 -220 129 -220 266c0 136 75 266 224 266c103 0 187 -62 192 -169z" />
    <glyph glyph-name="d" unicode="d" 
d="M424 263c0 102 -45 199 -162 199c-114 0 -151 -106 -151 -202c0 -93 27 -220 142 -220c131 0 171 109 171 223zM429 0l-3 74l-2 4c-41 -60 -102 -93 -172 -93c-149 0 -206 142 -206 268c0 130 57 264 206 264c67 0 137 -32 172 -91l2 2v294h60v-609c0 -39 3 -79 5 -113
h-62z" />
    <glyph glyph-name="e" unicode="e" 
d="M503 237h-388c2 -107 51 -197 174 -197c71 0 130 51 145 120h63c-31 -120 -106 -175 -227 -175c-150 0 -220 129 -220 266c0 136 75 266 224 266c168 0 229 -123 229 -280zM117 292h321c-7 97 -59 170 -163 170c-98 0 -150 -82 -158 -170z" />
    <glyph glyph-name="f" unicode="f" horiz-adv-x="333" 
d="M183 0h-60v447h-101v55h101v107c0 86 35 125 121 125c19 0 39 -7 57 -11v-48c-12 2 -25 4 -37 4c-82 0 -84 -41 -81 -113v-64h114v-55h-114v-447z" />
    <glyph glyph-name="g" unicode="g" 
d="M426 262c0 96 -53 200 -161 200c-109 0 -155 -110 -155 -202s47 -203 157 -203c115 0 159 107 159 205zM426 428l3 74h62c-2 -34 -5 -74 -5 -113v-301c0 -100 5 -205 -106 -257c-40 -19 -67 -23 -114 -23c-91 0 -199 31 -199 135h65c7 -60 78 -80 142 -80
c78 0 150 55 152 139v94h-2c-29 -59 -98 -94 -163 -94c-151 0 -216 115 -216 253c0 136 61 262 214 262c73 0 125 -35 165 -93z" />
    <glyph glyph-name="h" unicode="h" 
d="M140 722v-296h2c35 62 92 91 157 91c164 0 177 -145 177 -203v-314h-60v324c0 87 -50 138 -132 138c-99 0 -144 -83 -144 -173v-289h-60v722h60z" />
    <glyph glyph-name="i" unicode="i" horiz-adv-x="222" 
d="M81 502h60v-502h-60v502zM146 722v-75h-70v75h70z" />
    <glyph glyph-name="j" unicode="j" horiz-adv-x="222" 
d="M3 -192v55c88 -1 78 23 78 154v485h60v-524c0 -129 -3 -174 -138 -170zM146 722v-75h-70v75h70z" />
    <glyph glyph-name="k" unicode="k" horiz-adv-x="500" 
d="M146 722v-425l243 205h77l-254 -217l274 -285h-76l-264 272v-272h-60v722h60z" />
    <glyph glyph-name="l" unicode="l" horiz-adv-x="222" 
d="M141 722v-722h-60v722h60z" />
    <glyph glyph-name="m" unicode="m" horiz-adv-x="889" 
d="M136 502l3 -74l2 -2c35 62 92 91 157 91c79 0 141 -44 163 -110c37 59 95 110 173 110c164 0 177 -145 177 -203v-314h-60v324c0 87 -50 138 -132 138c-99 0 -144 -83 -144 -173v-289h-60v324c0 87 -50 138 -132 138c-99 0 -144 -83 -144 -173v-289h-60v389
c0 39 -3 79 -5 113h62z" />
    <glyph glyph-name="n" unicode="n" 
d="M140 289v-289h-60v389c0 39 -3 79 -5 113h62l3 -74l2 -2c35 62 92 91 157 91c164 0 177 -145 177 -203v-314h-60v324c0 87 -50 138 -132 138c-99 0 -144 -83 -144 -173z" />
    <glyph glyph-name="o" unicode="o" 
d="M447 251c0 93 -48 211 -169 211s-169 -118 -169 -211s48 -211 169 -211s169 118 169 211zM278 517c160 0 234 -134 234 -266s-74 -266 -234 -266s-234 134 -234 266s74 266 234 266z" />
    <glyph glyph-name="p" unicode="p" 
d="M130 263c0 -114 40 -223 171 -223c115 0 144 127 144 220c0 96 -39 202 -153 202c-117 0 -162 -97 -162 -199zM130 78v-270h-60v581c1 39 -3 79 -5 113h62l3 -74l2 -2c35 59 105 91 172 91c149 0 206 -134 206 -264c0 -126 -57 -268 -203 -268c-73 0 -134 33 -175 93h-2z
" />
    <glyph glyph-name="q" unicode="q" 
d="M426 263c0 102 -45 199 -162 199c-114 0 -153 -106 -153 -202c0 -93 29 -220 144 -220c131 0 171 109 171 223zM426 428l3 74h62c-2 -34 -5 -74 -5 -113v-580h-60v269h-2c-41 -60 -102 -93 -175 -93c-146 0 -203 142 -203 268c0 130 57 264 206 264c67 0 137 -32 172 -89
v-3h2v3z" />
    <glyph glyph-name="r" unicode="r" horiz-adv-x="333" 
d="M140 302v-302h-60v389c1 39 -3 79 -5 113h62l3 -74h2c18 51 63 87 113 89c20 1 40 0 60 -1v-58c-12 1 -25 4 -37 4c-89 0 -136 -64 -138 -160z" />
    <glyph glyph-name="s" unicode="s" horiz-adv-x="500" 
d="M63 377c0 104 96 140 184 140c95 0 175 -33 183 -139h-65c-6 63 -62 84 -124 84c-56 0 -113 -22 -113 -81c0 -74 97 -67 233 -115c52 -18 85 -63 85 -117c0 -113 -105 -164 -211 -164c-87 0 -187 41 -189 152h65c5 -75 71 -97 139 -97c64 0 131 30 131 100
c0 72 -79 84 -159 102c-79 19 -159 42 -159 135z" />
    <glyph glyph-name="t" unicode="t" horiz-adv-x="333" 
d="M123 134v313h-100v55h100v107l60 26v-133h114v-55h-114v-336c-1 -46 23 -71 69 -71c18 0 36 1 52 6v-52c-19 -5 -41 -9 -61 -9c-127 0 -120 81 -120 149z" />
    <glyph glyph-name="u" unicode="u" 
d="M416 213v289h60v-389c0 -39 3 -79 5 -113h-62l-3 74l-2 2c-35 -62 -92 -91 -157 -91c-164 0 -177 145 -177 203v314h60v-324c0 -87 50 -138 132 -138c99 0 144 83 144 173z" />
    <glyph glyph-name="v" unicode="v" horiz-adv-x="500" 
d="M14 502h66l173 -419l167 419h66l-199 -502h-68z" />
    <glyph glyph-name="w" unicode="w" horiz-adv-x="833" 
d="M82 502l150 -423h2l152 423h71l148 -419h2l145 419h66l-187 -502h-57l-154 433h-2l-157 -433h-61l-184 502h66z" />
    <glyph glyph-name="x" unicode="x" horiz-adv-x="500" 
d="M253 300l151 202h63l-180 -243l196 -259h-79l-161 218l-158 -218h-68l2 2l192 255l-185 245h80z" />
    <glyph glyph-name="y" unicode="y" horiz-adv-x="500" 
d="M8 502h73l169 -420l168 420h65l-277 -694h-66l76 192z" />
    <glyph glyph-name="z" unicode="z" horiz-adv-x="444" 
d="M40 0v55l293 392h-293v55h364v-55l-291 -392h291v-55h-364z" />
    <glyph glyph-name="braceleft" unicode="{" horiz-adv-x="278" 
d="M248 -46v-50h-50c-40 4 -88 43 -88 109v143c0 73 -10 121 -72 128v55c62 7 72 56 72 130v144c0 66 48 105 88 109h50v-50h-33c-26 -6 -40 -28 -40 -75v-143c1 -95 -57 -135 -65 -142c8 -6 66 -46 65 -141v-142c0 -47 14 -69 40 -75h33z" />
    <glyph glyph-name="bar" unicode="|" horiz-adv-x="222" 
d="M81 -250v1000h60v-1000h-60z" />
    <glyph glyph-name="braceright" unicode="}" horiz-adv-x="278" 
d="M30 672v50h50c40 -4 88 -43 88 -109v-143c0 -74 10 -122 72 -129v-55c-62 -7 -72 -56 -72 -129v-144c0 -66 -48 -105 -88 -109h-50v50h33c26 6 40 28 40 75v143c-1 95 57 135 65 142c-8 6 -66 46 -65 141v142c0 47 -14 69 -40 75h-33z" />
    <glyph glyph-name="asciitilde" unicode="~" horiz-adv-x="660" 
d="M221 319c36 0 78 -18 117 -36c40 -18 77 -36 103 -36c45 0 80 51 99 87l40 -34c-28 -54 -73 -109 -140 -109c-37 0 -101 28 -135 42c-26 11 -55 31 -84 31c-53 0 -85 -56 -108 -95l-33 47c29 43 70 103 141 103z" />
    <glyph glyph-name="uni00A0" unicode="&#xa0;" horiz-adv-x="278" 
 />
    <glyph glyph-name="Agrave" unicode="&#xc0;" horiz-adv-x="667" 
d="M173 255h315l-156 407zM76 0h-67l286 722h76l288 -722h-71l-77 195h-359zM215 927h80l91 -143h-44z" />
    <glyph glyph-name="Aacute" unicode="&#xc1;" horiz-adv-x="667" 
d="M173 255h315l-156 407zM76 0h-67l286 722h76l288 -722h-71l-77 195h-359zM373 927h80l-127 -143h-44z" />
    <glyph glyph-name="Acircumflex" unicode="&#xc2;" horiz-adv-x="667" 
d="M173 255h315l-156 407zM76 0h-67l286 722h76l288 -722h-71l-77 195h-359zM198 782l100 145h73l99 -145h-47l-89 106l-90 -106h-46z" />
    <glyph glyph-name="Atilde" unicode="&#xc3;" horiz-adv-x="667" 
d="M173 255h315l-156 407zM76 0h-67l286 722h76l288 -722h-71l-77 195h-359zM434 915h38c-11 -45 -40 -85 -91 -85c-15 0 -29 4 -45 11c-15 5 -33 10 -54 10c-20 0 -42 -9 -47 -29h-38c12 55 49 89 108 80c9 -1 25 -6 40 -11c15 -4 31 -9 39 -9c23 0 42 12 50 33z" />
    <glyph glyph-name="Adieresis" unicode="&#xc4;" horiz-adv-x="667" 
d="M173 255h315l-156 407zM76 0h-67l286 722h76l288 -722h-71l-77 195h-359zM458 824h-74v88h74v-88zM284 824h-74v88h74v-88z" />
    <glyph glyph-name="Amacron" unicode="&#x100;" horiz-adv-x="667" 
d="M173 255h315l-156 407zM76 0h-67l286 722h76l288 -722h-71l-77 195h-359zM455 843h-245v50h245v-50z" />
    <glyph glyph-name="Abreve" unicode="&#x102;" horiz-adv-x="667" 
d="M173 255h315l-156 407zM76 0h-67l286 722h76l288 -722h-71l-77 195h-359zM432 937h21c-5 -80 -53 -108 -125 -108c-65 0 -118 35 -119 108h23c11 -48 58 -62 96 -62c39 0 91 14 104 62z" />
    <glyph glyph-name="Aring" unicode="&#xc5;" horiz-adv-x="667" 
d="M173 255h315l-156 407zM76 0h-67l286 722h76l288 -722h-71l-77 195h-359zM246 869c0 48 40 88 88 88s88 -40 88 -88s-40 -88 -88 -88s-88 40 -88 88zM389 869c0 28 -27 55 -55 55s-55 -26 -55 -55c0 -27 27 -55 55 -55c27 0 55 28 55 55z" />
    <glyph glyph-name="Aogonek" unicode="&#x104;" horiz-adv-x="667" 
d="M652 -134v-34c-19 -7 -42 -14 -69 -14c-36 0 -88 14 -88 74c0 57 53 89 96 108h-3l-77 195h-359l-76 -195h-67l286 722h76l288 -722h-28c-57 -36 -90 -60 -90 -103c0 -36 30 -42 50 -42c24 0 40 4 61 11zM173 255h315l-156 407z" />
    <glyph glyph-name="AE" unicode="&#xc6;" horiz-adv-x="1000" 
d="M426 722h499v-60h-389l43 -259h328v-60h-319l47 -283h299v-60h-356l-34 196h-350l-114 -196h-72zM465 662l-237 -406h308l-69 406h-2z" />
    <glyph glyph-name="Cacute" unicode="&#x106;" horiz-adv-x="667" 
d="M612 553h-70c-12 88 -88 124 -170 124c-185 0 -241 -168 -241 -316s56 -316 241 -316c80 0 160 40 178 130h70c-21 -121 -132 -190 -248 -190c-219 0 -311 176 -311 376c0 198 93 376 311 376c118 0 230 -54 240 -184zM417 927h80l-127 -143h-44z" />
    <glyph glyph-name="Ccircumflex" unicode="&#x108;" horiz-adv-x="667" 
d="M612 553h-70c-12 88 -88 124 -170 124c-185 0 -241 -168 -241 -316s56 -316 241 -316c80 0 160 40 178 130h70c-21 -121 -132 -190 -248 -190c-219 0 -311 176 -311 376c0 198 93 376 311 376c118 0 230 -54 240 -184zM228 782l100 145h73l99 -145h-47l-89 106l-90 -106
h-46z" />
    <glyph glyph-name="Ccaron" unicode="&#x10c;" horiz-adv-x="667" 
d="M612 553h-70c-12 88 -88 124 -170 124c-185 0 -241 -168 -241 -316s56 -316 241 -316c80 0 160 40 178 130h70c-21 -121 -132 -190 -248 -190c-219 0 -311 176 -311 376c0 198 93 376 311 376c118 0 230 -54 240 -184zM501 927l-100 -145h-73l-99 145h47l89 -106l90 106
h46z" />
    <glyph glyph-name="Cdotaccent" unicode="&#x10a;" horiz-adv-x="667" 
d="M612 553h-70c-12 88 -88 124 -170 124c-185 0 -241 -168 -241 -316s56 -316 241 -316c80 0 160 40 178 130h70c-21 -121 -132 -190 -248 -190c-219 0 -311 176 -311 376c0 198 93 376 311 376c118 0 230 -54 240 -184zM401 839h-74v88h74v-88z" />
    <glyph glyph-name="Ccedilla" unicode="&#xc7;" horiz-adv-x="667" 
d="M248 -161l7 28c29 -11 58 -20 89 -25c9 -1 34 4 42 11c11 10 12 18 12 32c0 28 -25 36 -48 36c-11 0 -22 -2 -33 -3l23 70c-196 16 -279 183 -279 373c0 198 93 376 311 376c118 0 230 -54 240 -184h-70c-12 88 -88 124 -170 124c-185 0 -241 -168 -241 -316
s56 -316 241 -316c80 0 160 40 178 130h70c-21 -121 -132 -190 -248 -190c-3 0 -7 0 -9 1l-10 -36c50 0 101 -7 101 -67c0 -47 -53 -66 -93 -66c-50 0 -66 8 -113 22z" />
    <glyph glyph-name="Dcaron" unicode="&#x10e;" horiz-adv-x="722" 
d="M156 60h146c203 0 286 119 286 301c0 213 -125 307 -330 301h-102v-602zM91 722h195c237 0 372 -122 372 -361s-135 -361 -372 -361h-195v722zM444 927l-100 -145h-73l-99 145h47l89 -106l90 106h46z" />
    <glyph glyph-name="Dcroat" unicode="&#x110;" horiz-adv-x="722" 
d="M156 662v-242h216v-45h-216v-315h146c204 0 286 120 286 301c0 214 -125 306 -330 301h-102zM91 0v375h-68v45h68v302h195c239 0 372 -121 372 -361s-133 -361 -372 -361h-195z" />
    <glyph glyph-name="Eth" unicode="&#xd0;" horiz-adv-x="722" 
d="M156 662v-242h216v-45h-216v-315h146c203 0 286 119 286 301c0 213 -125 307 -330 301h-102zM91 0v375h-68v45h68v302h195c237 0 372 -122 372 -361s-135 -361 -372 -361h-195z" />
    <glyph glyph-name="Egrave" unicode="&#xc8;" horiz-adv-x="611" 
d="M546 0h-444v722h429v-60h-364v-259h350v-60h-350v-283h379v-60zM187 927h80l91 -143h-44z" />
    <glyph glyph-name="Eacute" unicode="&#xc9;" horiz-adv-x="611" 
d="M546 0h-444v722h429v-60h-364v-259h350v-60h-350v-283h379v-60zM345 927h80l-127 -143h-44z" />
    <glyph glyph-name="Ecircumflex" unicode="&#xca;" horiz-adv-x="611" 
d="M546 0h-444v722h429v-60h-364v-259h350v-60h-350v-283h379v-60zM170 782l100 145h73l99 -145h-47l-89 106l-90 -106h-46z" />
    <glyph glyph-name="Ecaron" unicode="&#x11a;" horiz-adv-x="611" 
d="M546 0h-444v722h429v-60h-364v-259h350v-60h-350v-283h379v-60zM462 927l-100 -145h-73l-99 145h47l89 -106l90 106h46z" />
    <glyph glyph-name="Edieresis" unicode="&#xcb;" horiz-adv-x="611" 
d="M546 0h-444v722h429v-60h-364v-259h350v-60h-350v-283h379v-60zM430 824h-74v88h74v-88zM256 824h-74v88h74v-88z" />
    <glyph glyph-name="Emacron" unicode="&#x112;" horiz-adv-x="611" 
d="M546 0h-444v722h429v-60h-364v-259h350v-60h-350v-283h379v-60zM445 843h-245v50h245v-50z" />
    <glyph glyph-name="Ebreve" unicode="&#x114;" horiz-adv-x="611" 
d="M546 0h-444v722h429v-60h-364v-259h350v-60h-350v-283h379v-60zM425 937h21c-5 -80 -53 -108 -125 -108c-65 0 -118 35 -119 108h23c11 -48 58 -62 96 -62c39 0 91 14 104 62z" />
    <glyph glyph-name="Edotaccent" unicode="&#x116;" horiz-adv-x="611" 
d="M546 0h-444v722h429v-60h-364v-259h350v-60h-350v-283h379v-60zM353 839h-74v88h74v-88z" />
    <glyph glyph-name="Eogonek" unicode="&#x118;" horiz-adv-x="611" 
d="M541 -134v-34c-19 -7 -42 -14 -69 -14c-36 0 -88 14 -88 74c0 57 53 89 96 108h-378v722h429v-60h-364v-259h350v-60h-350v-283h379v-60h-26c-57 -36 -90 -60 -90 -103c0 -36 30 -42 50 -42c24 0 40 4 61 11z" />
    <glyph glyph-name="Gcircumflex" unicode="&#x11c;" horiz-adv-x="722" 
d="M385 368h246v-338c-87 -34 -166 -45 -259 -45c-197 0 -308 154 -308 376c0 186 99 376 308 376c120 0 243 -65 254 -193h-74c-13 92 -94 133 -180 133c-173 0 -238 -166 -238 -316c0 -184 77 -316 272 -316c54 0 109 15 160 30v233h-181v60zM237 782l100 145h73l99 -145
h-47l-89 106l-90 -106h-46z" />
    <glyph glyph-name="Gbreve" unicode="&#x11e;" horiz-adv-x="722" 
d="M385 368h246v-338c-87 -34 -166 -45 -259 -45c-197 0 -308 154 -308 376c0 186 99 376 308 376c120 0 243 -65 254 -193h-74c-13 92 -94 133 -180 133c-173 0 -238 -166 -238 -316c0 -184 77 -316 272 -316c54 0 109 15 160 30v233h-181v60zM472 937h21
c-5 -80 -53 -108 -125 -108c-65 0 -118 35 -119 108h23c11 -48 58 -62 96 -62c39 0 91 14 104 62z" />
    <glyph glyph-name="Gdotaccent" unicode="&#x120;" horiz-adv-x="722" 
d="M385 368h246v-338c-87 -34 -166 -45 -259 -45c-197 0 -308 154 -308 376c0 186 99 376 308 376c120 0 243 -65 254 -193h-74c-13 92 -94 133 -180 133c-173 0 -238 -166 -238 -316c0 -184 77 -316 272 -316c54 0 109 15 160 30v233h-181v60zM414 839h-74v88h74v-88z" />
    <glyph glyph-name="Gcommaaccent" unicode="&#x122;" horiz-adv-x="722" 
d="M385 368h246v-338c-87 -34 -166 -45 -259 -45c-197 0 -308 154 -308 376c0 186 99 376 308 376c120 0 243 -65 254 -193h-74c-13 92 -94 133 -180 133c-173 0 -238 -166 -238 -316c0 -184 77 -316 272 -316c54 0 109 15 160 30v233h-181v60zM353 -74h67l-59 -145h-43z
" />
    <glyph glyph-name="Hcircumflex" unicode="&#x124;" horiz-adv-x="722" 
d="M164 0h-65v722h65v-317h394v317h65v-722h-65v345h-394v-345zM228 782l100 145h73l99 -145h-47l-89 106l-90 -106h-46z" />
    <glyph glyph-name="Hbar" unicode="&#x126;" horiz-adv-x="722" 
d="M164 0h-65v722h65v-185h394v185h65v-722h-65v345h-394v-345zM164 405h394v90h-394v-90z" />
    <glyph glyph-name="Igrave" unicode="&#xcc;" horiz-adv-x="278" 
d="M172 0h-65v722h65v-722zM20 927h80l91 -143h-44z" />
    <glyph glyph-name="Iacute" unicode="&#xcd;" horiz-adv-x="278" 
d="M172 0h-65v722h65v-722zM178 927h80l-127 -143h-44z" />
    <glyph glyph-name="Icircumflex" unicode="&#xce;" horiz-adv-x="278" 
d="M172 0h-65v722h65v-722zM3 782l100 145h73l99 -145h-47l-89 106l-90 -106h-46z" />
    <glyph glyph-name="Itilde" unicode="&#x128;" horiz-adv-x="278" 
d="M172 0h-65v725h65v-725zM239 915h38c-11 -45 -40 -85 -91 -85c-15 0 -29 4 -45 11c-15 5 -33 10 -54 10c-20 0 -42 -9 -47 -29h-38c12 55 49 89 108 80c9 -1 25 -6 40 -11c15 -4 31 -9 39 -9c23 0 42 12 50 33z" />
    <glyph glyph-name="Idieresis" unicode="&#xcf;" horiz-adv-x="278" 
d="M172 0h-65v722h65v-722zM263 824h-74v88h74v-88zM89 824h-74v88h74v-88z" />
    <glyph glyph-name="Imacron" unicode="&#x12a;" horiz-adv-x="278" 
d="M172 0h-65v725h65v-725zM262 843h-245v50h245v-50z" />
    <glyph glyph-name="Idotaccent" unicode="&#x130;" horiz-adv-x="278" 
d="M172 0h-65v725h65v-725zM176 839h-74v88h74v-88z" />
    <glyph glyph-name="Iogonek" unicode="&#x12e;" horiz-adv-x="278" 
d="M182 -134v-34c-19 -7 -42 -14 -69 -14c-36 0 -88 14 -88 74c0 57 53 89 96 108h-14v722h65v-722h-11c-57 -36 -90 -60 -90 -103c0 -36 30 -42 50 -42c24 0 40 4 61 11z" />
    <glyph glyph-name="Jcircumflex" unicode="&#x134;" horiz-adv-x="500" 
d="M13 178h70c7 -78 59 -133 137 -133c92 0 127 93 127 180v497h65v-487c0 -53 -3 -122 -50 -179c-41 -50 -101 -71 -163 -71c-117 0 -172 88 -186 193zM237 782l100 145h73l99 -145h-47l-89 106l-90 -106h-46z" />
    <glyph glyph-name="Kcommaaccent" unicode="&#x136;" horiz-adv-x="611" 
d="M170 0h-64v722h64l1 -318l323 318h82l-333 -326l363 -396h-89l-346 377zM294 -74h67l-59 -145h-43z" />
    <glyph glyph-name="Lacute" unicode="&#x139;" 
d="M528 0h-428v722h65v-662h363v-60zM199 927h80l-127 -143h-44z" />
    <glyph glyph-name="Lcaron" unicode="&#x13d;" 
d="M528 0h-428v722h65v-662h363v-60zM350 722h66l-64 -146h-40z" />
    <glyph glyph-name="Lcommaaccent" unicode="&#x13b;" 
d="M528 0h-428v722h65v-662h363v-60zM271 -74h67l-59 -145h-43z" />
    <glyph glyph-name="Lslash" unicode="&#x141;" 
d="M528 0h-428v399l-94 -37v40l94 37v283h65v-257l94 37v-40l-94 -37v-365h363v-60z" />
    <glyph glyph-name="Ldot" unicode="&#x13f;" 
d="M528 0h-428v722h65v-662h363v-60zM457 362h-74v88h74v-88z" />
    <glyph glyph-name="Nacute" unicode="&#x143;" horiz-adv-x="722" 
d="M92 0v722h74l398 -635h2v635h65v-722h-82l-390 624h-2v-624h-65zM413 927h80l-127 -143h-44z" />
    <glyph glyph-name="Ncaron" unicode="&#x147;" horiz-adv-x="722" 
d="M92 0v722h74l398 -635h2v635h65v-722h-82l-390 624h-2v-624h-65zM499 927l-100 -145h-73l-99 145h47l89 -106l90 106h46z" />
    <glyph glyph-name="Ntilde" unicode="&#xd1;" horiz-adv-x="722" 
d="M92 0v722h74l398 -635h2v635h65v-722h-82l-390 624h-2v-624h-65zM461 915h38c-11 -45 -40 -85 -91 -85c-15 0 -29 4 -45 11c-15 5 -33 10 -54 10c-20 0 -42 -9 -47 -29h-38c12 55 49 89 108 80c9 -1 25 -6 40 -11c15 -4 31 -9 39 -9c23 0 42 12 50 33z" />
    <glyph glyph-name="Ncommaaccent" unicode="&#x145;" horiz-adv-x="722" 
d="M92 0v722h74l398 -635h2v635h65v-722h-82l-390 624h-2v-624h-65zM329 -74h67l-59 -145h-43z" />
    <glyph glyph-name="Ograve" unicode="&#xd2;" horiz-adv-x="778" 
d="M137 361c0 -158 72 -316 252 -316s252 158 252 316s-72 316 -252 316s-252 -158 -252 -316zM711 361c0 -225 -114 -376 -322 -376s-322 151 -322 376s114 376 322 376s322 -151 322 -376zM270 927h80l91 -143h-44z" />
    <glyph glyph-name="Oacute" unicode="&#xd3;" horiz-adv-x="778" 
d="M137 361c0 -158 72 -316 252 -316s252 158 252 316s-72 316 -252 316s-252 -158 -252 -316zM711 361c0 -225 -114 -376 -322 -376s-322 151 -322 376s114 376 322 376s322 -151 322 -376zM428 927h80l-127 -143h-44z" />
    <glyph glyph-name="Ocircumflex" unicode="&#xd4;" horiz-adv-x="778" 
d="M137 361c0 -158 72 -316 252 -316s252 158 252 316s-72 316 -252 316s-252 -158 -252 -316zM711 361c0 -225 -114 -376 -322 -376s-322 151 -322 376s114 376 322 376s322 -151 322 -376zM253 782l100 145h73l99 -145h-47l-89 106l-90 -106h-46z" />
    <glyph glyph-name="Otilde" unicode="&#xd5;" horiz-adv-x="778" 
d="M137 361c0 -158 72 -316 252 -316s252 158 252 316s-72 316 -252 316s-252 -158 -252 -316zM711 361c0 -225 -114 -376 -322 -376s-322 151 -322 376s114 376 322 376s322 -151 322 -376zM489 915h38c-11 -45 -40 -85 -91 -85c-15 0 -29 4 -45 11c-15 5 -33 10 -54 10
c-20 0 -42 -9 -47 -29h-38c12 55 49 89 108 80c9 -1 25 -6 40 -11c15 -4 31 -9 39 -9c23 0 42 12 50 33z" />
    <glyph glyph-name="Odieresis" unicode="&#xd6;" horiz-adv-x="778" 
d="M137 361c0 -158 72 -316 252 -316s252 158 252 316s-72 316 -252 316s-252 -158 -252 -316zM711 361c0 -225 -114 -376 -322 -376s-322 151 -322 376s114 376 322 376s322 -151 322 -376zM513 824h-74v88h74v-88zM339 824h-74v88h74v-88z" />
    <glyph glyph-name="Omacron" unicode="&#x14c;" horiz-adv-x="778" 
d="M137 361c0 -158 72 -316 252 -316s252 158 252 316s-72 316 -252 316s-252 -158 -252 -316zM711 361c0 -225 -115 -376 -322 -376s-322 151 -322 376s115 376 322 376s322 -151 322 -376zM512 843h-245v50h245v-50z" />
    <glyph glyph-name="Obreve" unicode="&#x14e;" horiz-adv-x="778" 
d="M137 361c0 -158 72 -316 252 -316s252 158 252 316s-72 316 -252 316s-252 -158 -252 -316zM711 361c0 -225 -115 -376 -322 -376s-322 151 -322 376s115 376 322 376s322 -151 322 -376zM490 937h21c-5 -80 -53 -108 -125 -108c-65 0 -118 35 -119 108h23
c11 -48 58 -62 96 -62c39 0 91 14 104 62z" />
    <glyph glyph-name="Ohungarumlaut" unicode="&#x150;" horiz-adv-x="778" 
d="M137 361c0 -158 72 -316 252 -316s252 158 252 316s-72 316 -252 316s-252 -158 -252 -316zM711 361c0 -225 -115 -376 -322 -376s-322 151 -322 376s115 376 322 376s322 -151 322 -376zM297 786l95 141h81l-129 -141h-47zM428 786l95 141h81l-129 -141h-47z" />
    <glyph glyph-name="Oslash" unicode="&#xd8;" horiz-adv-x="778" 
d="M186 160l385 433c-41 52 -101 84 -182 84c-180 0 -252 -158 -252 -316c0 -73 15 -146 49 -201zM163 76l-80 -91l-29 27l84 94c-47 63 -71 151 -71 255c0 225 115 376 322 376c97 0 174 -34 228 -92l82 92l27 -25l-85 -97c46 -64 70 -151 70 -254
c0 -225 -115 -376 -322 -376c-95 0 -171 32 -226 91zM593 561l-384 -434c40 -50 99 -82 180 -82c180 0 252 158 252 316c0 72 -15 143 -48 200z" />
    <glyph glyph-name="OE" unicode="&#x152;" horiz-adv-x="1000" 
d="M131 361c0 -158 72 -316 232 -316c117 4 190 65 190 176v253c1 146 -67 203 -190 203c-160 0 -232 -158 -232 -316zM555 0v69h-4c-43 -58 -121 -84 -188 -84c-187 0 -302 151 -302 376s115 376 302 376c69 0 132 -17 192 -78v63h376v-60h-311v-259h297v-60h-297v-283h326
v-60h-391z" />
    <glyph glyph-name="Racute" unicode="&#x154;" horiz-adv-x="667" 
d="M168 404h139c92 0 206 6 206 129c0 139 -130 129 -199 129h-146v-258zM168 344v-344h-65v722h236c63 0 115 -4 170 -38c50 -30 74 -82 74 -151c0 -78 -55 -134 -139 -155v-2c92 -15 112 -77 121 -161c13 -117 9 -171 38 -215h-75c-17 48 -21 99 -25 150
c-15 165 -25 194 -156 194h-179zM366 927h80l-127 -143h-44z" />
    <glyph glyph-name="Rcaron" unicode="&#x158;" horiz-adv-x="667" 
d="M168 404h139c92 0 206 6 206 129c0 139 -130 129 -199 129h-146v-258zM168 344v-344h-65v722h236c63 0 115 -4 170 -38c50 -30 74 -82 74 -151c0 -78 -55 -134 -139 -155v-2c92 -15 112 -77 121 -161c13 -117 9 -171 38 -215h-75c-17 48 -21 99 -25 150
c-15 165 -25 194 -156 194h-179zM465 927l-100 -145h-73l-99 145h47l89 -106l90 106h46z" />
    <glyph glyph-name="Rcommaaccent" unicode="&#x156;" horiz-adv-x="667" 
d="M168 404h139c92 0 206 6 206 129c0 139 -130 129 -199 129h-146v-258zM168 344v-344h-65v722h236c63 0 115 -4 170 -38c50 -30 74 -82 74 -151c0 -78 -55 -134 -139 -155v-2c92 -15 112 -77 121 -161c13 -117 9 -171 38 -215h-75c-17 48 -21 99 -25 150
c-15 165 -25 194 -156 194h-179zM301 -74h67l-59 -145h-43z" />
    <glyph glyph-name="Sacute" unicode="&#x15a;" horiz-adv-x="611" 
d="M553 190c0 -157 -135 -205 -280 -205c-115 0 -212 84 -215 203h70c2 -111 84 -143 181 -143c81 0 174 47 174 139c0 72 -52 106 -113 126c-117 39 -295 76 -295 232c0 126 116 195 230 195c95 0 219 -33 235 -172h-70c-2 89 -83 112 -157 112c-75 0 -168 -38 -168 -126
c0 -205 408 -112 408 -361zM367 927h80l-127 -143h-44z" />
    <glyph glyph-name="Scircumflex" unicode="&#x15c;" horiz-adv-x="611" 
d="M553 190c0 -157 -135 -205 -280 -205c-115 0 -212 84 -215 203h70c2 -111 84 -143 181 -143c81 0 174 47 174 139c0 72 -52 106 -113 126c-117 39 -295 76 -295 232c0 126 116 195 230 195c95 0 219 -33 235 -172h-70c-2 89 -83 112 -157 112c-75 0 -168 -38 -168 -126
c0 -205 408 -112 408 -361zM175 782l100 145h73l99 -145h-47l-89 106l-90 -106h-46z" />
    <glyph glyph-name="Scaron" unicode="&#x160;" horiz-adv-x="611" 
d="M553 190c0 -157 -135 -205 -280 -205c-115 0 -212 84 -215 203h70c2 -111 84 -143 181 -143c81 0 174 47 174 139c0 72 -52 106 -113 126c-117 39 -295 76 -295 232c0 126 116 195 230 195c95 0 219 -33 235 -172h-70c-2 89 -83 112 -157 112c-75 0 -168 -38 -168 -126
c0 -205 408 -112 408 -361zM442 927l-100 -145h-73l-99 145h47l89 -106l90 106h46z" />
    <glyph glyph-name="Scedilla" unicode="&#x15e;" horiz-adv-x="611" 
d="M208 -172l7 28c27 -8 52 -12 75 -12c29 0 60 6 60 41c0 31 -29 36 -52 36c-11 0 -18 1 -29 -2l21 66c-124 3 -229 62 -232 203h70c3 -112 84 -143 181 -143c80 0 174 41 174 142c0 87 -69 113 -181 148c-139 43 -227 87 -227 207c0 125 116 195 230 195
c111 0 227 -33 235 -172h-70c-3 89 -82 112 -157 112c-76 0 -168 -38 -168 -126c0 -98 85 -124 178 -153c109 -37 230 -69 230 -205c0 -138 -108 -199 -238 -207l-10 -36c50 0 101 -11 101 -62c0 -57 -73 -71 -113 -71c-31 0 -59 4 -85 11z" />
    <glyph glyph-name="Scommaaccent" unicode="&#x218;" horiz-adv-x="611" 
d="M553 190c0 -157 -135 -205 -280 -205c-115 0 -212 84 -215 203h70c2 -111 84 -143 181 -143c81 0 174 47 174 139c0 72 -52 106 -113 126c-117 39 -295 76 -295 232c0 126 116 195 230 195c95 0 219 -33 235 -172h-70c-2 89 -83 112 -157 112c-75 0 -168 -38 -168 -126
c0 -205 408 -112 408 -361zM278 -74h67l-59 -145h-43z" />
    <glyph glyph-name="Tcaron" unicode="&#x164;" 
d="M248 0l-1 662h-233v60h528v-60h-229l-1 -662h-64zM414 927l-100 -145h-73l-99 145h47l89 -106l90 106h46z" />
    <glyph glyph-name="Tcommaaccent" unicode="&#x162;" 
d="M248 0l-1 662h-233v60h528v-60h-229l-1 -662h-64zM249 -74h67l-59 -145h-43z" />
    <glyph glyph-name="uni021A" unicode="&#x21a;" 
d="M248 0l-1 662h-233v60h528v-60h-229l-1 -662h-64zM249 -74h67l-59 -145h-43z" />
    <glyph glyph-name="Tbar" unicode="&#x166;" 
d="M438 430h-126v-430h-64l-1 430h-125v40h125v192h-233v60h528v-60h-229l-1 -192h126v-40z" />
    <glyph glyph-name="Thorn" unicode="&#xde;" horiz-adv-x="611" 
d="M165 507v-288h158c97 0 183 31 183 144s-86 144 -183 144h-158zM100 0v722h65v-155h143c134 0 268 -32 268 -204s-134 -204 -268 -204h-143v-159h-65z" />
    <glyph glyph-name="Ugrave" unicode="&#xd9;" horiz-adv-x="722" 
d="M97 722h65v-467c5 -132 79 -210 199 -210s194 78 199 210v467h65v-468c-3 -156 -88 -269 -264 -269s-261 113 -264 269v468zM242 927h80l91 -143h-44z" />
    <glyph glyph-name="Uacute" unicode="&#xda;" horiz-adv-x="722" 
d="M97 722h65v-467c5 -132 79 -210 199 -210s194 78 199 210v467h65v-468c-3 -156 -88 -269 -264 -269s-261 113 -264 269v468zM400 927h80l-127 -143h-44z" />
    <glyph glyph-name="Ucircumflex" unicode="&#xdb;" horiz-adv-x="722" 
d="M97 722h65v-467c5 -132 79 -210 199 -210s194 78 199 210v467h65v-468c-3 -156 -88 -269 -264 -269s-261 113 -264 269v468zM225 782l100 145h73l99 -145h-47l-89 106l-90 -106h-46z" />
    <glyph glyph-name="Utilde" unicode="&#x168;" horiz-adv-x="722" 
d="M97 722h65v-467c5 -131 80 -210 199 -210s194 79 199 210v467h65v-468c-2 -155 -89 -269 -264 -269s-262 114 -264 269v468zM479 915h38c-11 -45 -40 -85 -91 -85c-15 0 -29 4 -45 11c-15 5 -33 10 -54 10c-20 0 -42 -9 -47 -29h-38c12 55 49 89 108 80
c9 -1 25 -6 40 -11c15 -4 31 -9 39 -9c23 0 42 12 50 33z" />
    <glyph glyph-name="Udieresis" unicode="&#xdc;" horiz-adv-x="722" 
d="M97 722h65v-467c5 -132 79 -210 199 -210s194 78 199 210v467h65v-468c-3 -156 -88 -269 -264 -269s-261 113 -264 269v468zM485 824h-74v88h74v-88zM311 824h-74v88h74v-88z" />
    <glyph glyph-name="Umacron" unicode="&#x16a;" horiz-adv-x="722" 
d="M97 722h65v-467c5 -131 80 -210 199 -210s194 79 199 210v467h65v-468c-2 -155 -89 -269 -264 -269s-262 114 -264 269v468zM486 843h-245v50h245v-50z" />
    <glyph glyph-name="Ubreve" unicode="&#x16c;" horiz-adv-x="722" 
d="M97 722h65v-467c5 -131 80 -210 199 -210s194 79 199 210v467h65v-468c-2 -155 -89 -269 -264 -269s-262 114 -264 269v468zM465 937h21c-5 -80 -53 -108 -125 -108c-65 0 -118 35 -119 108h23c11 -48 58 -62 96 -62c39 0 91 14 104 62z" />
    <glyph glyph-name="Uring" unicode="&#x16e;" horiz-adv-x="722" 
d="M97 722h65v-467c5 -131 80 -210 199 -210s194 79 199 210v467h65v-468c-2 -155 -89 -269 -264 -269s-262 114 -264 269v468zM274 869c0 51 42 93 92 93c51 0 93 -42 93 -93c0 -50 -42 -92 -93 -92s-92 41 -92 92zM422 869c0 31 -25 56 -56 56s-56 -25 -56 -56
s25 -56 56 -56s56 25 56 56z" />
    <glyph glyph-name="Uhungarumlaut" unicode="&#x170;" horiz-adv-x="722" 
d="M97 722h65v-467c5 -131 80 -210 199 -210s194 79 199 210v467h65v-468c-2 -155 -89 -269 -264 -269s-262 114 -264 269v468zM259 786l95 141h81l-129 -141h-47zM390 786l95 141h81l-129 -141h-47z" />
    <glyph glyph-name="Uogonek" unicode="&#x172;" horiz-adv-x="722" 
d="M435 -134v-34c-19 -7 -42 -14 -69 -14c-36 0 -88 14 -88 74c0 43 31 74 66 94c-165 8 -244 118 -247 268v468h65v-467c5 -132 79 -210 199 -210s194 78 199 210v467h65v-468c-3 -145 -78 -253 -232 -267c-44 -29 -69 -51 -69 -90c0 -36 30 -42 50 -42c24 0 40 4 61 11z
" />
    <glyph glyph-name="Wcircumflex" unicode="&#x174;" horiz-adv-x="1000" 
d="M497 655l-207 -655h-92l-188 722h69l168 -657h2l211 657h79l220 -657h2l167 657h63l-190 -722h-89l-213 655h-2zM364 782l100 145h73l99 -145h-47l-89 106l-90 -106h-46z" />
    <glyph glyph-name="Yacute" unicode="&#xdd;" horiz-adv-x="611" 
d="M274 0v312l-266 410h83l221 -349l221 349h70l-264 -408v-314h-65zM371 927h80l-127 -143h-44z" />
    <glyph glyph-name="Ycircumflex" unicode="&#x176;" horiz-adv-x="611" 
d="M274 0v312l-266 410h83l221 -349l221 349h70l-264 -408v-314h-65zM174 782l100 145h73l99 -145h-47l-89 106l-90 -106h-46z" />
    <glyph glyph-name="Ydieresis" unicode="&#x178;" horiz-adv-x="611" 
d="M274 0v312l-266 410h83l221 -349l221 349h70l-264 -408v-314h-65zM430 824h-74v88h74v-88zM256 824h-74v88h74v-88z" />
    <glyph glyph-name="Zacute" unicode="&#x179;" 
d="M517 0h-478v60l401 602h-401v60h478v-60l-402 -602h402v-60zM332 927h80l-127 -143h-44z" />
    <glyph glyph-name="Zcaron" unicode="&#x17d;" 
d="M517 0h-478v60l401 602h-401v60h478v-60l-402 -602h402v-60zM414 927l-100 -145h-73l-99 145h47l89 -106l90 106h46z" />
    <glyph glyph-name="Zdotaccent" unicode="&#x17b;" 
d="M517 0h-478v60l401 602h-401v60h478v-60l-402 -602h402v-60zM315 839h-74v88h74v-88z" />
    <glyph glyph-name="agrave" unicode="&#xe0;" horiz-adv-x="500" 
d="M131 707h80l91 -143h-44zM101 140c0 -68 52 -100 113 -100c117 0 151 87 151 181c0 11 0 23 -1 34c-20 3 -43 2 -70 2c-88 0 -193 -21 -193 -117zM364 308v46c0 82 -48 108 -119 108c-64 0 -115 -19 -123 -87h-64c16 104 91 142 188 142c111 0 178 -46 178 -161v-243
c-1 -39 2 -78 5 -113h-62l-2 74h-2l-3 -7c-23 -43 -73 -82 -157 -82c-93 0 -167 57 -167 155c0 68 41 118 101 142c67 27 155 26 227 26z" />
    <glyph glyph-name="aacute" unicode="&#xe1;" horiz-adv-x="500" 
d="M289 707h80l-127 -143h-44zM101 140c0 -68 52 -100 113 -100c117 0 151 87 151 181c0 11 0 23 -1 34c-20 3 -43 2 -70 2c-88 0 -193 -21 -193 -117zM364 308v46c0 82 -48 108 -119 108c-64 0 -115 -19 -123 -87h-64c16 104 91 142 188 142c111 0 178 -46 178 -161v-243
c-1 -39 2 -78 5 -113h-62l-2 74h-2l-3 -7c-23 -43 -73 -82 -157 -82c-93 0 -167 57 -167 155c0 68 41 118 101 142c67 27 155 26 227 26z" />
    <glyph glyph-name="acircumflex" unicode="&#xe2;" horiz-adv-x="500" 
d="M114 562l100 145h73l99 -145h-47l-89 106l-90 -106h-46zM101 140c0 -68 52 -100 113 -100c117 0 151 87 151 181c0 11 0 23 -1 34c-20 3 -43 2 -70 2c-88 0 -193 -21 -193 -117zM364 308v46c0 82 -48 108 -119 108c-64 0 -115 -19 -123 -87h-64c16 104 91 142 188 142
c111 0 178 -46 178 -161v-243c-1 -39 2 -78 5 -113h-62l-2 74h-2l-3 -7c-23 -43 -73 -82 -157 -82c-93 0 -167 57 -167 155c0 68 41 118 101 142c67 27 155 26 227 26z" />
    <glyph glyph-name="atilde" unicode="&#xe3;" horiz-adv-x="500" 
d="M350 695h38c-11 -45 -40 -85 -91 -85c-15 0 -29 4 -45 11c-15 5 -33 10 -54 10c-20 0 -42 -9 -47 -29h-38c12 55 49 89 108 80c9 -1 25 -6 40 -11c15 -4 31 -9 39 -9c23 0 42 12 50 33zM101 140c0 -68 52 -100 113 -100c117 0 151 87 151 181c0 11 0 23 -1 34
c-20 3 -43 2 -70 2c-88 0 -193 -21 -193 -117zM364 308v46c0 82 -48 108 -119 108c-64 0 -115 -19 -123 -87h-64c16 104 91 142 188 142c111 0 178 -46 178 -161v-243c-1 -39 2 -78 5 -113h-62l-2 74h-2l-3 -7c-23 -43 -73 -82 -157 -82c-93 0 -167 57 -167 155
c0 68 41 118 101 142c67 27 155 26 227 26z" />
    <glyph glyph-name="adieresis" unicode="&#xe4;" horiz-adv-x="500" 
d="M369 641h-67v78h67v-78zM202 641h-67v78h67v-78zM101 140c0 -68 52 -100 113 -100c117 0 151 87 151 181c0 11 0 23 -1 34c-20 3 -43 2 -70 2c-88 0 -193 -21 -193 -117zM364 308v46c0 82 -48 108 -119 108c-64 0 -115 -19 -123 -87h-64c16 104 91 142 188 142
c111 0 178 -46 178 -161v-243c-1 -39 2 -78 5 -113h-62l-2 74h-2l-3 -7c-23 -43 -73 -82 -157 -82c-93 0 -167 57 -167 155c0 68 41 118 101 142c67 27 155 26 227 26z" />
    <glyph glyph-name="amacron" unicode="&#x101;" horiz-adv-x="500" 
d="M101 140c0 -68 52 -100 113 -100c131 0 156 108 150 213c-85 -3 -263 13 -263 -113zM364 308v46c-6 82 -48 108 -119 108c-63 0 -115 -19 -123 -87h-64c15 103 92 142 188 142c111 0 180 -51 178 -166v-238c-1 -39 3 -79 5 -113h-62l-2 74h-2l-3 -7
c-22 -42 -89 -82 -157 -82c-93 0 -167 57 -167 155c0 68 41 120 101 145c67 29 154 19 227 23zM375 647h-245v60h245v-60z" />
    <glyph glyph-name="abreve" unicode="&#x103;" horiz-adv-x="500" 
d="M101 140c0 -68 52 -100 113 -100c131 0 156 108 150 213c-85 -3 -263 13 -263 -113zM364 308v46c-6 82 -48 108 -119 108c-63 0 -115 -19 -123 -87h-64c15 103 92 142 188 142c111 0 180 -51 178 -166v-238c-1 -39 3 -79 5 -113h-62l-2 74h-2l-3 -7
c-22 -42 -89 -82 -157 -82c-93 0 -167 57 -167 155c0 68 41 120 101 145c67 29 154 19 227 23zM350 717h21c-5 -80 -53 -108 -125 -108c-65 0 -118 35 -119 108h23c11 -48 58 -62 96 -62c39 0 91 14 104 62z" />
    <glyph glyph-name="aring" unicode="&#xe5;" horiz-adv-x="500" 
d="M158 650c0 51 42 93 92 93c51 0 93 -42 93 -93c0 -50 -42 -92 -93 -92s-92 41 -92 92zM306 650c0 31 -25 56 -56 56s-56 -25 -56 -56s25 -56 56 -56s56 25 56 56zM101 140c0 -68 52 -100 113 -100c117 0 151 87 151 181c0 11 0 23 -1 34c-20 3 -43 2 -70 2
c-88 0 -193 -21 -193 -117zM364 308v46c0 82 -48 108 -119 108c-64 0 -115 -19 -123 -87h-64c16 104 91 142 188 142c111 0 178 -46 178 -161v-243c-1 -39 2 -78 5 -113h-62l-2 74h-2l-3 -7c-23 -43 -73 -82 -157 -82c-93 0 -167 57 -167 155c0 68 41 118 101 142
c67 27 155 26 227 26z" />
    <glyph glyph-name="aogonek" unicode="&#x105;" horiz-adv-x="500" 
d="M364 308v46c0 82 -48 108 -119 108c-64 0 -115 -19 -123 -87h-64c16 104 91 142 188 142c111 0 178 -46 178 -161v-243c-1 -39 2 -78 5 -113h-12c-57 -36 -90 -60 -90 -103c0 -36 30 -42 50 -42c24 0 40 4 61 11v-34c-19 -7 -42 -14 -69 -14c-36 0 -88 14 -88 74
c0 57 53 89 96 108h-10l-2 74h-2l-3 -7c-23 -43 -73 -82 -157 -82c-93 0 -167 57 -167 155c0 68 41 118 101 142c67 27 155 26 227 26zM101 140c0 -68 52 -100 113 -100c117 0 151 87 151 181c0 11 0 23 -1 34c-20 3 -43 2 -70 2c-88 0 -193 -21 -193 -117z" />
    <glyph glyph-name="ae" unicode="&#xe6;" horiz-adv-x="833" 
d="M428 299h285c0 88 -40 163 -146 163c-90 0 -142 -89 -139 -163zM122 375h-64c15 103 92 142 188 142c67 -5 142 -37 157 -105h2c31 71 96 102 154 105c158 0 219 -123 219 -273h-350c-2 -101 31 -204 136 -204c71 0 130 51 145 120h63c-31 -120 -106 -175 -207 -175
c-72 6 -137 44 -167 119c-29 -78 -105 -113 -195 -119c-93 0 -167 57 -167 155c0 68 44 112 101 137c67 29 154 19 226 22v55c-6 82 -47 108 -118 108c-63 0 -115 -19 -123 -87zM363 243l-77 1c-92 0 -185 -4 -185 -118c0 -59 65 -86 115 -86c128 0 150 100 147 203z" />
    <glyph glyph-name="cacute" unicode="&#x107;" horiz-adv-x="500" 
d="M462 348h-65c-5 77 -54 114 -137 114c-92 0 -149 -96 -149 -210c0 -115 57 -212 149 -212c78 0 132 48 137 117h65c-16 -115 -82 -172 -196 -172c-150 0 -220 129 -220 266c0 136 75 266 224 266c103 0 187 -62 192 -169zM312 707h80l-127 -143h-44z" />
    <glyph glyph-name="ccircumflex" unicode="&#x109;" horiz-adv-x="500" 
d="M462 348h-65c-5 77 -54 114 -137 114c-92 0 -149 -96 -149 -210c0 -115 57 -212 149 -212c78 0 132 48 137 117h65c-16 -115 -82 -172 -196 -172c-150 0 -220 129 -220 266c0 136 75 266 224 266c103 0 187 -62 192 -169zM131 562l100 145h73l99 -145h-47l-89 106
l-90 -106h-46z" />
    <glyph glyph-name="ccaron" unicode="&#x10d;" horiz-adv-x="500" 
d="M462 348h-65c-5 77 -54 114 -137 114c-92 0 -149 -96 -149 -210c0 -115 57 -212 149 -212c78 0 132 48 137 117h65c-16 -115 -82 -172 -196 -172c-150 0 -220 129 -220 266c0 136 75 266 224 266c103 0 187 -62 192 -169zM406 707l-100 -145h-73l-99 145h47l89 -106
l90 106h46z" />
    <glyph glyph-name="cdotaccent" unicode="&#x10b;" horiz-adv-x="500" 
d="M462 348h-65c-5 77 -54 114 -137 114c-92 0 -149 -96 -149 -210c0 -115 57 -212 149 -212c78 0 132 48 137 117h65c-16 -115 -82 -172 -196 -172c-150 0 -220 129 -220 266c0 136 75 266 224 266c103 0 187 -62 192 -169zM303 619h-74v88h74v-88z" />
    <glyph glyph-name="ccedilla" unicode="&#xe7;" horiz-adv-x="500" 
d="M158 -161l7 28c29 -11 58 -20 89 -25c9 -1 34 4 42 11c11 10 12 18 12 32c0 28 -25 36 -48 36c-11 0 -22 -2 -33 -3l22 68c-139 9 -203 134 -203 265c0 136 75 266 224 266c103 0 187 -62 192 -169h-65c-5 77 -54 114 -137 114c-92 0 -149 -96 -149 -210
c0 -115 57 -212 149 -212c78 0 132 48 137 117h65c-16 -113 -80 -170 -189 -171l-10 -36c50 0 101 -7 101 -67c0 -47 -53 -66 -93 -66c-50 0 -66 8 -113 22z" />
    <glyph glyph-name="dcaron" unicode="&#x10f;" 
d="M424 263c0 102 -45 199 -162 199c-114 0 -151 -106 -151 -202c0 -93 27 -220 142 -220c131 0 171 109 171 223zM429 0l-3 74l-2 4c-41 -60 -102 -93 -172 -93c-149 0 -206 142 -206 268c0 130 57 264 206 264c67 0 137 -32 172 -91l2 2v294h60v-609c0 -39 3 -79 5 -113
h-62zM580 722h66l-64 -146h-40z" />
    <glyph glyph-name="dcroat" unicode="&#x111;" 
d="M556 583h-70v-470c0 -39 2 -78 5 -113h-62l-3 74l-2 4c-41 -60 -101 -93 -172 -93c-149 0 -206 142 -206 268c0 130 57 264 206 264c67 0 137 -32 172 -91l2 2v155h-129v37h129v102h60v-102h70v-37zM424 263c0 101 -46 199 -162 199c-115 0 -151 -106 -151 -202
c0 -92 27 -220 142 -220c131 0 171 109 171 223z" />
    <glyph glyph-name="eth" unicode="&#xf0;" 
d="M155 697l17 40c61 -14 82 -22 127 -45l93 58l30 -28l-85 -53c63 -43 175 -141 175 -401c0 -176 -82 -283 -234 -283c-160 0 -234 127 -234 252c0 126 74 253 226 253c116 0 161 -87 178 -129l2 2c-8 89 -49 207 -161 276l-93 -57l-29 29l83 51c-32 16 -45 21 -95 35z
M109 237c0 -88 48 -200 169 -200s169 112 169 200c0 89 -48 201 -169 201s-169 -112 -169 -201z" />
    <glyph glyph-name="egrave" unicode="&#xe8;" 
d="M503 237h-388c3 -108 51 -197 174 -197c72 0 129 51 145 120h63c-31 -121 -106 -175 -227 -175c-149 0 -220 130 -220 266s75 266 224 266c168 0 229 -123 229 -280zM117 292h321c-8 97 -58 170 -163 170c-98 0 -150 -82 -158 -170zM159 707h80l91 -143h-44z" />
    <glyph glyph-name="eacute" unicode="&#xe9;" 
d="M503 237h-388c3 -108 51 -197 174 -197c72 0 129 51 145 120h63c-31 -121 -106 -175 -227 -175c-149 0 -220 130 -220 266s75 266 224 266c168 0 229 -123 229 -280zM117 292h321c-8 97 -58 170 -163 170c-98 0 -150 -82 -158 -170zM317 707h80l-127 -143h-44z" />
    <glyph glyph-name="ecircumflex" unicode="&#xea;" 
d="M503 237h-388c3 -108 51 -197 174 -197c72 0 129 51 145 120h63c-31 -121 -106 -175 -227 -175c-149 0 -220 130 -220 266s75 266 224 266c168 0 229 -123 229 -280zM117 292h321c-8 97 -58 170 -163 170c-98 0 -150 -82 -158 -170zM142 562l100 145h73l99 -145h-47
l-89 106l-90 -106h-46z" />
    <glyph glyph-name="ecaron" unicode="&#x11b;" 
d="M503 237h-388c2 -107 51 -197 174 -197c71 0 130 51 145 120h63c-31 -120 -106 -175 -227 -175c-150 0 -220 129 -220 266c0 136 75 266 224 266c168 0 229 -123 229 -280zM117 292h321c-7 97 -59 170 -163 170c-98 0 -150 -82 -158 -170zM414 707l-100 -145h-73l-99 145
h47l89 -106l90 106h46z" />
    <glyph glyph-name="edieresis" unicode="&#xeb;" 
d="M503 237h-388c3 -108 51 -197 174 -197c72 0 129 51 145 120h63c-31 -121 -106 -175 -227 -175c-149 0 -220 130 -220 266s75 266 224 266c168 0 229 -123 229 -280zM117 292h321c-8 97 -58 170 -163 170c-98 0 -150 -82 -158 -170zM400 641h-67v78h67v-78zM233 641h-67
v78h67v-78z" />
    <glyph glyph-name="emacron" unicode="&#x113;" 
d="M503 237h-388c2 -107 51 -197 174 -197c71 0 130 51 145 120h63c-31 -120 -106 -175 -227 -175c-150 0 -220 129 -220 266c0 136 75 266 224 266c168 0 229 -123 229 -280zM117 292h321c-7 97 -59 170 -163 170c-98 0 -150 -82 -158 -170zM405 647h-245v60h245v-60z" />
    <glyph glyph-name="ebreve" unicode="&#x115;" 
d="M503 237h-388c2 -107 51 -197 174 -197c71 0 130 51 145 120h63c-31 -120 -106 -175 -227 -175c-150 0 -220 129 -220 266c0 136 75 266 224 266c168 0 229 -123 229 -280zM117 292h321c-7 97 -59 170 -163 170c-98 0 -150 -82 -158 -170zM382 717h21
c-5 -80 -53 -108 -125 -108c-65 0 -118 35 -119 108h23c11 -48 58 -62 96 -62c39 0 91 14 104 62z" />
    <glyph glyph-name="edotaccent" unicode="&#x117;" 
d="M503 237h-388c2 -107 51 -197 174 -197c71 0 130 51 145 120h63c-31 -120 -106 -175 -227 -175c-150 0 -220 129 -220 266c0 136 75 266 224 266c168 0 229 -123 229 -280zM117 292h321c-7 97 -59 170 -163 170c-98 0 -150 -82 -158 -170zM322 619h-74v88h74v-88z" />
    <glyph glyph-name="eogonek" unicode="&#x119;" 
d="M363 -134v-34c-19 -7 -42 -14 -69 -14c-36 0 -88 14 -88 74c0 43 30 73 65 93h-1c-149 0 -220 130 -220 266s75 266 224 266c168 0 229 -123 229 -280h-388c3 -108 51 -197 174 -197c72 0 129 51 145 120h63c-27 -101 -83 -156 -172 -171c-47 -31 -73 -53 -73 -92
c0 -36 30 -42 50 -42c24 0 40 4 61 11zM117 292h321c-8 97 -58 170 -163 170c-98 0 -150 -82 -158 -170z" />
    <glyph glyph-name="gcircumflex" unicode="&#x11d;" 
d="M426 262c0 96 -53 200 -161 200c-109 0 -155 -110 -155 -202s47 -203 157 -203c115 0 159 107 159 205zM426 428l3 74h62c-2 -34 -5 -74 -5 -113v-301c0 -100 5 -205 -106 -257c-40 -19 -67 -23 -114 -23c-91 0 -199 31 -199 135h65c7 -60 78 -80 142 -80
c78 0 150 55 152 139v94h-2c-29 -59 -98 -94 -163 -94c-151 0 -216 115 -216 253c0 136 61 262 214 262c73 0 125 -35 165 -93zM135 562l100 145h73l99 -145h-47l-89 106l-90 -106h-46z" />
    <glyph glyph-name="gbreve" unicode="&#x11f;" 
d="M426 262c0 96 -53 200 -161 200c-109 0 -155 -110 -155 -202s47 -203 157 -203c115 0 159 107 159 205zM426 428l3 74h62c-2 -34 -5 -74 -5 -113v-301c0 -100 5 -205 -106 -257c-40 -19 -67 -23 -114 -23c-91 0 -199 31 -199 135h65c7 -60 78 -80 142 -80
c78 0 150 55 152 139v94h-2c-29 -59 -98 -94 -163 -94c-151 0 -216 115 -216 253c0 136 61 262 214 262c73 0 125 -35 165 -93zM376 717h21c-5 -80 -53 -108 -125 -108c-65 0 -118 35 -119 108h23c11 -48 58 -62 96 -62c39 0 91 14 104 62z" />
    <glyph glyph-name="gdotaccent" unicode="&#x121;" 
d="M426 262c0 96 -53 200 -161 200c-109 0 -155 -110 -155 -202s47 -203 157 -203c115 0 159 107 159 205zM426 428l3 74h62c-2 -34 -5 -74 -5 -113v-301c0 -100 5 -205 -106 -257c-40 -19 -67 -23 -114 -23c-91 0 -199 31 -199 135h65c7 -60 78 -80 142 -80
c78 0 150 55 152 139v94h-2c-29 -59 -98 -94 -163 -94c-151 0 -216 115 -216 253c0 136 61 262 214 262c73 0 125 -35 165 -93zM305 619h-74v88h74v-88z" />
    <glyph glyph-name="gcommaaccent" unicode="&#x123;" 
d="M426 262c0 96 -53 200 -161 200c-109 0 -155 -110 -155 -202s47 -203 157 -203c115 0 159 107 159 205zM426 428l3 74h62c-2 -34 -5 -74 -5 -113v-301c0 -100 5 -205 -106 -257c-40 -19 -67 -23 -114 -23c-91 0 -199 31 -199 135h65c7 -60 78 -80 142 -80
c78 0 150 55 152 139v94h-2c-29 -59 -98 -94 -163 -94c-151 0 -216 115 -216 253c0 136 61 262 214 262c73 0 125 -35 165 -93zM300 564h-67l59 145h43z" />
    <glyph glyph-name="hcircumflex" unicode="&#x125;" 
d="M140 722v-296h2c35 62 92 91 157 91c164 0 177 -145 177 -203v-314h-60v324c0 87 -50 138 -132 138c-99 0 -144 -83 -144 -173v-289h-60v722h60zM33 761l100 145h73l99 -145h-47l-89 106l-90 -106h-46z" />
    <glyph glyph-name="hbar" unicode="&#x127;" 
d="M140 722v-102h126v-37h-126v-157h2c35 63 92 91 157 91c164 0 177 -145 177 -203v-314h-60v324c0 88 -49 138 -132 138c-99 0 -144 -83 -144 -173v-289h-60v583h-73v37h73v102h60z" />
    <glyph glyph-name="dotlessi" unicode="&#x131;" horiz-adv-x="222" 
d="M141 0h-60v502h60v-502z" />
    <glyph glyph-name="igrave" unicode="&#xec;" horiz-adv-x="222" 
d="M141 0h-60v502h60v-502zM-8 707h80l91 -143h-44z" />
    <glyph glyph-name="iacute" unicode="&#xed;" horiz-adv-x="222" 
d="M141 0h-60v502h60v-502zM150 707h80l-127 -143h-44z" />
    <glyph glyph-name="icircumflex" unicode="&#xee;" horiz-adv-x="222" 
d="M141 0h-60v502h60v-502zM-25 562l100 145h73l99 -145h-47l-89 106l-90 -106h-46z" />
    <glyph glyph-name="itilde" unicode="&#x129;" horiz-adv-x="222" 
d="M141 0h-60v502h60v-502zM213 695h38c-11 -45 -40 -85 -91 -85c-14 0 -29 5 -45 11c-15 5 -33 10 -54 10c-20 0 -42 -9 -47 -29h-38c12 54 50 89 108 80c9 -1 25 -6 40 -11c15 -4 31 -9 39 -9c22 0 42 12 50 33z" />
    <glyph glyph-name="idieresis" unicode="&#xef;" horiz-adv-x="222" 
d="M141 0h-60v502h60v-502zM228 641h-67v78h67v-78zM61 641h-67v78h67v-78z" />
    <glyph glyph-name="imacron" unicode="&#x12b;" horiz-adv-x="222" 
d="M141 0h-60v502h60v-502zM215 623h-205v50h205v-50z" />
    <glyph glyph-name="iogonek" unicode="&#x12f;" horiz-adv-x="222" 
d="M156 -134v-34c-19 -7 -42 -14 -69 -14c-36 0 -88 14 -88 74c0 57 53 89 96 108h-14v502h60v-502h-6c-57 -36 -90 -60 -90 -103c0 -36 30 -42 50 -42c24 0 40 4 61 11zM146 722v-75h-70v75h70z" />
    <glyph glyph-name="dotlessj" unicode="&#x237;" horiz-adv-x="222" 
d="M3 -192v55c88 0 78 22 78 154v485h60v-524c0 -128 -3 -175 -138 -170z" />
    <glyph glyph-name="jcircumflex" unicode="&#x135;" horiz-adv-x="222" 
d="M3 -192v55c88 0 78 22 78 154v485h60v-524c0 -128 -3 -175 -138 -170zM-24 562l100 145h73l99 -145h-47l-89 106l-90 -106h-46z" />
    <glyph glyph-name="kcommaaccent" unicode="&#x137;" horiz-adv-x="500" 
d="M146 722v-425l243 205h77l-254 -217l274 -285h-76l-264 272v-272h-60v722h60zM230 -74h67l-59 -145h-43z" />
    <glyph glyph-name="lacute" unicode="&#x13a;" horiz-adv-x="222" 
d="M141 722v-722h-60v722h60zM174 898h80l-127 -143h-44z" />
    <glyph glyph-name="lcaron" unicode="&#x13e;" horiz-adv-x="222" 
d="M141 722v-722h-60v722h60zM246 722h66l-64 -146h-40z" />
    <glyph glyph-name="lcommaaccent" unicode="&#x13c;" horiz-adv-x="222" 
d="M141 722v-722h-60v722h60zM84 -74h67l-59 -145h-43z" />
    <glyph glyph-name="lslash" unicode="&#x142;" horiz-adv-x="222" 
d="M81 722h60v-250l76 30v-34l-76 -31v-437h-60v413l-76 -30v34l76 31v274z" />
    <glyph glyph-name="ldot" unicode="&#x140;" horiz-adv-x="311" 
d="M141 722v-722h-60v722h60zM301 340h-74v88h74v-88z" />
    <glyph glyph-name="nacute" unicode="&#x144;" 
d="M140 289v-289h-60v389c0 39 -3 79 -5 113h62l3 -74l2 -2c35 62 92 91 157 91c164 0 177 -145 177 -203v-314h-60v324c0 87 -50 138 -132 138c-99 0 -144 -83 -144 -173zM332 707h80l-127 -143h-44z" />
    <glyph glyph-name="ncaron" unicode="&#x148;" 
d="M140 289v-289h-60v389c0 39 -3 79 -5 113h62l3 -74l2 -2c35 62 92 91 157 91c164 0 177 -145 177 -203v-314h-60v324c0 87 -50 138 -132 138c-99 0 -144 -83 -144 -173zM415 707l-100 -145h-73l-99 145h47l89 -106l90 106h46z" />
    <glyph glyph-name="ntilde" unicode="&#xf1;" 
d="M140 289v-289h-60v389c0 39 -2 78 -5 113h62l3 -74l2 -2c35 63 92 91 157 91c164 0 177 -145 177 -203v-314h-60v324c0 88 -49 138 -132 138c-99 0 -144 -83 -144 -173zM378 695h38c-11 -45 -40 -85 -91 -85c-15 0 -29 4 -45 11c-15 5 -33 10 -54 10
c-20 0 -42 -9 -47 -29h-38c12 55 49 89 108 80c9 -1 25 -6 40 -11c15 -4 31 -9 39 -9c23 0 42 12 50 33z" />
    <glyph glyph-name="ncommaaccent" unicode="&#x146;" 
d="M140 289v-289h-60v389c0 39 -3 79 -5 113h62l3 -74l2 -2c35 62 92 91 157 91c164 0 177 -145 177 -203v-314h-60v324c0 87 -50 138 -132 138c-99 0 -144 -83 -144 -173zM248 -74h67l-59 -145h-43z" />
    <glyph glyph-name="ograve" unicode="&#xf2;" 
d="M447 251c0 93 -48 211 -169 211s-169 -118 -169 -211s48 -211 169 -211s169 118 169 211zM278 517c160 0 234 -134 234 -266s-74 -266 -234 -266s-234 134 -234 266s74 266 234 266zM159 707h80l91 -143h-44z" />
    <glyph glyph-name="oacute" unicode="&#xf3;" 
d="M447 251c0 93 -48 211 -169 211s-169 -118 -169 -211s48 -211 169 -211s169 118 169 211zM278 517c160 0 234 -134 234 -266s-74 -266 -234 -266s-234 134 -234 266s74 266 234 266zM317 707h80l-127 -143h-44z" />
    <glyph glyph-name="ocircumflex" unicode="&#xf4;" 
d="M447 251c0 93 -48 211 -169 211s-169 -118 -169 -211s48 -211 169 -211s169 118 169 211zM278 517c160 0 234 -134 234 -266s-74 -266 -234 -266s-234 134 -234 266s74 266 234 266zM142 562l100 145h73l99 -145h-47l-89 106l-90 -106h-46z" />
    <glyph glyph-name="otilde" unicode="&#xf5;" 
d="M447 251c0 93 -48 211 -169 211s-169 -118 -169 -211s48 -211 169 -211s169 118 169 211zM278 517c160 0 234 -134 234 -266s-74 -266 -234 -266s-234 134 -234 266s74 266 234 266zM378 695h38c-11 -45 -40 -85 -91 -85c-15 0 -29 4 -45 11c-15 5 -33 10 -54 10
c-20 0 -42 -9 -47 -29h-38c12 55 49 89 108 80c9 -1 25 -6 40 -11c15 -4 31 -9 39 -9c23 0 42 12 50 33z" />
    <glyph glyph-name="odieresis" unicode="&#xf6;" 
d="M447 251c0 93 -48 211 -169 211s-169 -118 -169 -211s48 -211 169 -211s169 118 169 211zM278 517c160 0 234 -134 234 -266s-74 -266 -234 -266s-234 134 -234 266s74 266 234 266zM400 641h-67v78h67v-78zM233 641h-67v78h67v-78z" />
    <glyph glyph-name="omacron" unicode="&#x14d;" 
d="M447 251c0 93 -48 211 -169 211s-169 -118 -169 -211s48 -211 169 -211s169 118 169 211zM278 517c160 0 234 -134 234 -266s-74 -266 -234 -266s-234 134 -234 266s74 266 234 266zM402 647h-245v60h245v-60z" />
    <glyph glyph-name="obreve" unicode="&#x14f;" 
d="M447 251c0 93 -48 211 -169 211s-169 -118 -169 -211s48 -211 169 -211s169 118 169 211zM278 517c160 0 234 -134 234 -266s-74 -266 -234 -266s-234 134 -234 266s74 266 234 266zM380 717h21c-5 -80 -53 -108 -125 -108c-65 0 -118 35 -119 108h23
c11 -48 58 -62 96 -62c39 0 91 14 104 62z" />
    <glyph glyph-name="ohungarumlaut" unicode="&#x151;" 
d="M447 251c0 93 -48 211 -169 211s-169 -118 -169 -211s48 -211 169 -211s169 118 169 211zM278 517c160 0 234 -134 234 -266s-74 -266 -234 -266s-234 134 -234 266s74 266 234 266zM177 566l95 141h81l-129 -141h-47zM308 566l95 141h81l-129 -141h-47z" />
    <glyph glyph-name="oslash" unicode="&#xf8;" 
d="M140 127l255 280c-27 33 -65 55 -117 55c-121 0 -169 -118 -169 -211c0 -40 9 -85 31 -124zM415 377l-256 -280c26 -33 65 -57 119 -57c121 0 169 118 169 211c0 42 -10 88 -32 126zM33 10l62 68c-35 49 -51 111 -51 173c0 132 74 266 234 266c69 0 122 -25 159 -64
l59 64l24 -25l-60 -66c35 -49 52 -112 52 -175c0 -132 -74 -266 -234 -266c-70 0 -124 26 -161 65l-60 -65z" />
    <glyph glyph-name="oe" unicode="&#x153;" horiz-adv-x="889" 
d="M425 256c0 93 -36 208 -156 206c-112 0 -160 -118 -160 -211s48 -211 160 -211c124 -1 156 115 156 216zM490 292h285c0 95 -40 170 -146 170c-90 0 -142 -89 -139 -170zM840 237h-350c-2 -94 31 -200 136 -197c71 0 130 51 145 120h63c-31 -120 -106 -175 -207 -175
c-75 0 -148 40 -170 125h-2c-30 -83 -101 -125 -177 -125c-160 0 -234 134 -234 266s74 266 234 266c81 0 146 -47 178 -125c27 84 100 125 165 125c158 0 219 -123 219 -280z" />
    <glyph glyph-name="racute" unicode="&#x155;" horiz-adv-x="333" 
d="M140 302v-302h-60v389c1 39 -3 79 -5 113h62l3 -74h2c18 51 63 87 113 89c20 1 40 0 60 -1v-58c-12 1 -25 4 -37 4c-89 0 -136 -64 -138 -160zM210 707h80l-127 -143h-44z" />
    <glyph glyph-name="rcaron" unicode="&#x159;" horiz-adv-x="333" 
d="M140 302v-302h-60v389c1 39 -3 79 -5 113h62l3 -74h2c18 51 63 87 113 89c20 1 40 0 60 -1v-58c-12 1 -25 4 -37 4c-89 0 -136 -64 -138 -160zM293 707l-100 -145h-73l-99 145h47l89 -106l90 106h46z" />
    <glyph glyph-name="rcommaaccent" unicode="&#x157;" horiz-adv-x="333" 
d="M140 302v-302h-60v389c1 39 -3 79 -5 113h62l3 -74h2c18 51 63 87 113 89c20 1 40 0 60 -1v-58c-12 1 -25 4 -37 4c-89 0 -136 -64 -138 -160zM84 -74h67l-59 -145h-43z" />
    <glyph glyph-name="sacute" unicode="&#x15b;" horiz-adv-x="500" 
d="M63 377c0 104 96 140 184 140c95 0 175 -33 183 -139h-65c-6 63 -62 84 -124 84c-56 0 -113 -22 -113 -81c0 -74 97 -67 233 -115c52 -18 85 -63 85 -117c0 -113 -105 -164 -211 -164c-87 0 -187 41 -189 152h65c5 -75 71 -97 139 -97c64 0 131 30 131 100
c0 72 -79 84 -159 102c-79 19 -159 42 -159 135zM287 707h80l-127 -143h-44z" />
    <glyph glyph-name="scircumflex" unicode="&#x15d;" horiz-adv-x="500" 
d="M63 377c0 104 96 140 184 140c95 0 175 -33 183 -139h-65c-6 63 -62 84 -124 84c-56 0 -113 -22 -113 -81c0 -74 97 -67 233 -115c52 -18 85 -63 85 -117c0 -113 -105 -164 -211 -164c-87 0 -187 41 -189 152h65c5 -75 71 -97 139 -97c64 0 131 30 131 100
c0 72 -79 84 -159 102c-79 19 -159 42 -159 135zM111 562l100 145h73l99 -145h-47l-89 106l-90 -106h-46z" />
    <glyph glyph-name="scaron" unicode="&#x161;" horiz-adv-x="500" 
d="M63 377c0 103 96 140 184 140c95 0 175 -33 183 -139h-65c-5 63 -63 84 -124 84c-56 0 -113 -22 -113 -81c0 -74 97 -67 233 -115c52 -19 85 -62 85 -117c0 -113 -104 -164 -211 -164c-87 0 -186 40 -189 152h65c5 -75 71 -97 139 -97c64 0 131 31 131 100
c0 73 -79 83 -159 102s-159 43 -159 135zM386 707l-100 -145h-73l-99 145h47l89 -106l90 106h46z" />
    <glyph glyph-name="scedilla" unicode="&#x15f;" horiz-adv-x="500" 
d="M152 -172l7 28c27 -8 52 -12 75 -12c29 0 60 6 60 41c0 31 -29 36 -52 36c-11 0 -18 1 -29 -2l21 66c-88 0 -185 40 -188 152h65c5 -75 71 -97 139 -97c64 0 131 31 131 100c0 73 -79 83 -159 102s-159 43 -159 135c0 103 96 140 184 140c95 0 175 -33 183 -139h-65
c-5 63 -63 84 -124 84c-56 0 -113 -22 -113 -81c0 -74 97 -67 233 -115c52 -19 85 -62 85 -117c0 -105 -90 -155 -187 -163l-10 -36c50 0 101 -11 101 -62c0 -57 -73 -71 -113 -71c-31 0 -59 4 -85 11z" />
    <glyph glyph-name="scommaaccent" unicode="&#x219;" horiz-adv-x="500" 
d="M63 377c0 104 96 140 184 140c95 0 175 -33 183 -139h-65c-6 63 -62 84 -124 84c-56 0 -113 -22 -113 -81c0 -74 97 -67 233 -115c52 -18 85 -63 85 -117c0 -113 -105 -164 -211 -164c-87 0 -187 41 -189 152h65c5 -75 71 -97 139 -97c64 0 131 30 131 100
c0 72 -79 84 -159 102c-79 19 -159 42 -159 135zM226 -74h67l-59 -145h-43z" />
    <glyph glyph-name="germandbls" unicode="&#xdf;" horiz-adv-x="611" 
d="M147 488v-488h-60v509c1 135 63 228 205 228c93 0 180 -54 180 -155c0 -79 -118 -131 -118 -180c0 -98 216 -93 216 -248c0 -107 -78 -169 -172 -169c-96 0 -158 59 -162 156h65c-2 -61 38 -101 95 -101c66 0 109 36 109 111c0 115 -216 113 -216 244
c0 86 118 120 118 189c0 67 -63 98 -122 98c-110 0 -137 -106 -138 -194z" />
    <glyph glyph-name="tcaron" unicode="&#x165;" horiz-adv-x="333" 
d="M123 134v313h-100v55h100v107l60 26v-133h114v-55h-114v-336c-1 -46 23 -71 69 -71c18 0 36 1 52 6v-52c-19 -5 -41 -9 -61 -9c-127 0 -120 81 -120 149zM311 722h66l-64 -146h-40z" />
    <glyph glyph-name="tcommaaccent" unicode="&#x163;" horiz-adv-x="333" 
d="M123 134v313h-100v55h100v107l60 26v-133h114v-55h-114v-336c-1 -46 23 -71 69 -71c18 0 36 1 52 6v-52c-19 -5 -41 -9 -61 -9c-127 0 -120 81 -120 149zM150 -74h67l-59 -145h-43z" />
    <glyph glyph-name="uni021B" unicode="&#x21b;" horiz-adv-x="333" 
d="M123 134v313h-100v55h100v107l60 26v-133h114v-55h-114v-336c-1 -46 23 -71 69 -71c18 0 36 1 52 6v-52c-19 -5 -41 -9 -61 -9c-127 0 -120 81 -120 149zM150 -74h67l-59 -145h-43z" />
    <glyph glyph-name="tbar" unicode="&#x167;" horiz-adv-x="333" 
d="M123 134v149h-71v37h71v127h-100v55h100v107l60 26v-133h114v-55h-114v-127h98v-37h-98v-172c-1 -47 22 -71 69 -71c19 0 36 1 52 6v-52c-19 -5 -41 -9 -61 -9c-127 0 -120 81 -120 149z" />
    <glyph glyph-name="thorn" unicode="&#xfe;" 
d="M130 263c0 -114 40 -223 171 -223c115 0 144 127 144 220c0 96 -39 202 -153 202c-117 0 -162 -97 -162 -199zM130 78v-270h-60v914h60v-294l2 -2c35 59 105 91 172 91c149 0 206 -134 206 -264c0 -126 -57 -268 -203 -268c-73 0 -134 33 -175 93h-2z" />
    <glyph glyph-name="ugrave" unicode="&#xf9;" 
d="M416 213v289h60v-389c0 -39 2 -78 5 -113h-62l-3 74l-2 2c-35 -63 -92 -91 -157 -91c-164 0 -177 144 -177 203v314h60v-324c0 -88 49 -138 132 -138c99 0 144 83 144 173zM159 707h80l91 -143h-44z" />
    <glyph glyph-name="uacute" unicode="&#xfa;" 
d="M416 213v289h60v-389c0 -39 2 -78 5 -113h-62l-3 74l-2 2c-35 -63 -92 -91 -157 -91c-164 0 -177 144 -177 203v314h60v-324c0 -88 49 -138 132 -138c99 0 144 83 144 173zM317 707h80l-127 -143h-44z" />
    <glyph glyph-name="ucircumflex" unicode="&#xfb;" 
d="M416 213v289h60v-389c0 -39 2 -78 5 -113h-62l-3 74l-2 2c-35 -63 -92 -91 -157 -91c-164 0 -177 144 -177 203v314h60v-324c0 -88 49 -138 132 -138c99 0 144 83 144 173zM142 562l100 145h73l99 -145h-47l-89 106l-90 -106h-46z" />
    <glyph glyph-name="utilde" unicode="&#x169;" 
d="M416 213v289h60v-389c0 -39 3 -79 5 -113h-62l-3 74l-2 2c-35 -62 -92 -91 -157 -91c-164 0 -177 145 -177 203v314h60v-324c0 -87 50 -138 132 -138c99 0 144 83 144 173zM382 695h38c-11 -45 -40 -85 -91 -85c-14 0 -29 5 -45 11c-15 5 -33 10 -54 10
c-20 0 -42 -9 -47 -29h-38c12 54 50 89 108 80c9 -1 25 -6 40 -11c15 -4 31 -9 39 -9c22 0 42 12 50 33z" />
    <glyph glyph-name="udieresis" unicode="&#xfc;" 
d="M416 213v289h60v-389c0 -39 2 -78 5 -113h-62l-3 74l-2 2c-35 -63 -92 -91 -157 -91c-164 0 -177 144 -177 203v314h60v-324c0 -88 49 -138 132 -138c99 0 144 83 144 173zM400 641h-67v78h67v-78zM233 641h-67v78h67v-78z" />
    <glyph glyph-name="umacron" unicode="&#x16b;" 
d="M416 213v289h60v-389c0 -39 3 -79 5 -113h-62l-3 74l-2 2c-35 -62 -92 -91 -157 -91c-164 0 -177 145 -177 203v314h60v-324c0 -87 50 -138 132 -138c99 0 144 83 144 173zM402 647h-245v60h245v-60z" />
    <glyph glyph-name="ubreve" unicode="&#x16d;" 
d="M416 213v289h60v-389c0 -39 3 -79 5 -113h-62l-3 74l-2 2c-35 -62 -92 -91 -157 -91c-164 0 -177 145 -177 203v314h60v-324c0 -87 50 -138 132 -138c99 0 144 83 144 173zM382 717h21c-5 -80 -53 -108 -125 -108c-65 0 -118 35 -119 108h23c11 -48 58 -62 96 -62
c39 0 91 14 104 62z" />
    <glyph glyph-name="uring" unicode="&#x16f;" 
d="M416 213v289h60v-389c0 -39 3 -79 5 -113h-62l-3 74l-2 2c-35 -62 -92 -91 -157 -91c-164 0 -177 145 -177 203v314h60v-324c0 -87 50 -138 132 -138c99 0 144 83 144 173zM185 650c0 51 42 93 92 93c51 0 93 -42 93 -93c0 -50 -42 -92 -93 -92s-92 41 -92 92zM333 650
c0 31 -25 56 -56 56s-56 -25 -56 -56s25 -56 56 -56s56 25 56 56z" />
    <glyph glyph-name="uhungarumlaut" unicode="&#x171;" 
d="M416 213v289h60v-389c0 -39 3 -79 5 -113h-62l-3 74l-2 2c-35 -62 -92 -91 -157 -91c-164 0 -177 145 -177 203v314h60v-324c0 -87 50 -138 132 -138c99 0 144 83 144 173zM184 566l95 141h81l-129 -141h-47zM315 566l95 141h81l-129 -141h-47z" />
    <glyph glyph-name="uogonek" unicode="&#x173;" 
d="M499 -134v-34c-19 -7 -42 -14 -69 -14c-36 0 -88 14 -88 74c0 57 53 89 96 108h-19l-3 74l-2 2c-35 -63 -92 -91 -157 -91c-164 0 -177 144 -177 203v314h60v-324c0 -88 49 -138 132 -138c99 0 144 83 144 173v289h60v-389c0 -39 2 -78 5 -113h-3
c-57 -36 -90 -60 -90 -103c0 -36 30 -42 50 -42c24 0 40 4 61 11z" />
    <glyph glyph-name="wcircumflex" unicode="&#x175;" horiz-adv-x="833" 
d="M82 502l150 -423h2l152 423h71l148 -419h2l145 419h66l-187 -502h-57l-154 433h-2l-157 -433h-61l-184 502h66zM283 562l100 145h73l99 -145h-47l-89 106l-90 -106h-46z" />
    <glyph glyph-name="yacute" unicode="&#xfd;" horiz-adv-x="500" 
d="M289 707h80l-127 -143h-44zM8 502h73l172 -426l165 426h65l-277 -694h-66l76 192z" />
    <glyph glyph-name="ycircumflex" unicode="&#x177;" horiz-adv-x="500" 
d="M8 502h73l169 -420l168 420h65l-277 -694h-66l76 192zM124 562l100 145h73l99 -145h-47l-89 106l-90 -106h-46z" />
    <glyph glyph-name="ydieresis" unicode="&#xff;" horiz-adv-x="500" 
d="M369 641h-67v78h67v-78zM202 641h-67v78h67v-78zM8 502h73l172 -426l165 426h65l-277 -694h-66l76 192z" />
    <glyph glyph-name="zacute" unicode="&#x17a;" horiz-adv-x="444" 
d="M40 0v55l293 392h-293v55h364v-55l-291 -392h291v-55h-364zM275 707h80l-127 -143h-44z" />
    <glyph glyph-name="zcaron" unicode="&#x17e;" horiz-adv-x="444" 
d="M40 0v55l293 392h-293v55h364v-55l-291 -392h291v-55h-364zM358 707l-100 -145h-73l-99 145h47l89 -106l90 106h46z" />
    <glyph glyph-name="zdotaccent" unicode="&#x17c;" horiz-adv-x="444" 
d="M40 0v55l293 392h-293v55h364v-55l-291 -392h291v-55h-364zM262 619h-74v88h74v-88z" />
    <glyph glyph-name="grave.cap" unicode="&#xe300;" horiz-adv-x="278" 
d="M20 927h80l91 -143h-44z" />
    <glyph glyph-name="acute" unicode="&#xb4;" horiz-adv-x="278" 
d="M178 707h80l-127 -143h-44z" />
    <glyph glyph-name="acute.cap" unicode="&#xe301;" horiz-adv-x="278" 
d="M178 927h80l-127 -143h-44z" />
    <glyph glyph-name="circumflex" unicode="&#x2c6;" horiz-adv-x="278" 
d="M3 562l100 145h73l99 -145h-47l-89 106l-90 -106h-46z" />
    <glyph glyph-name="circumflex.cap" unicode="&#xe302;" horiz-adv-x="278" 
d="M3 782l100 145h73l99 -145h-47l-89 106l-90 -106h-46z" />
    <glyph glyph-name="caron" unicode="&#x2c7;" horiz-adv-x="278" 
d="M275 707l-100 -145h-73l-99 145h47l89 -106l90 106h46z" />
    <glyph glyph-name="caron.cap" unicode="&#xe303;" horiz-adv-x="278" 
d="M275 927l-100 -145h-73l-99 145h47l89 -106l90 106h46z" />
    <glyph glyph-name="caron.alt" unicode="&#xe30b;" horiz-adv-x="278" 
d="M128 722h66l-64 -146h-40z" />
    <glyph glyph-name="tilde" unicode="&#x2dc;" horiz-adv-x="278" 
d="M239 695h38c-11 -45 -40 -85 -91 -85c-14 0 -29 5 -45 11c-15 5 -33 10 -54 10c-20 0 -42 -9 -47 -29h-38c12 54 50 89 108 80c9 -1 25 -6 40 -11c15 -4 31 -9 39 -9c22 0 42 12 50 33z" />
    <glyph glyph-name="tilde.cap" unicode="&#xe304;" horiz-adv-x="278" 
d="M239 915h38c-11 -45 -40 -85 -91 -85c-15 0 -29 4 -45 11c-15 5 -33 10 -54 10c-20 0 -42 -9 -47 -29h-38c12 55 49 89 108 80c9 -1 25 -6 40 -11c15 -4 31 -9 39 -9c23 0 42 12 50 33z" />
    <glyph glyph-name="dieresis" unicode="&#xa8;" horiz-adv-x="278" 
d="M263 619h-74v88h74v-88zM89 619h-74v88h74v-88z" />
    <glyph glyph-name="dieresis.cap" unicode="&#xe305;" horiz-adv-x="278" 
d="M263 824h-74v88h74v-88zM89 824h-74v88h74v-88z" />
    <glyph glyph-name="macron" unicode="&#xaf;" horiz-adv-x="278" 
d="M262 647h-245v60h245v-60z" />
    <glyph glyph-name="macron.cap" unicode="&#xe306;" horiz-adv-x="278" 
d="M262 843h-245v50h245v-50z" />
    <glyph glyph-name="uni02C9" unicode="&#x2c9;" horiz-adv-x="278" 
d="M262 623h-245v50h245v-50z" />
    <glyph glyph-name="breve" unicode="&#x2d8;" horiz-adv-x="278" 
d="M240 717h21c-5 -80 -53 -108 -125 -108c-65 0 -118 35 -119 108h23c11 -48 58 -62 96 -62c39 0 91 14 104 62z" />
    <glyph glyph-name="breve.cap" unicode="&#xe307;" horiz-adv-x="278" 
d="M240 937h21c-5 -80 -53 -108 -125 -108c-65 0 -118 35 -119 108h23c11 -48 58 -62 96 -62c39 0 91 14 104 62z" />
    <glyph glyph-name="ring" unicode="&#x2da;" horiz-adv-x="278" 
d="M46 650c0 51 42 93 92 93c51 0 93 -42 93 -93c0 -50 -42 -92 -93 -92s-92 41 -92 92zM194 650c0 31 -25 56 -56 56s-56 -25 -56 -56s25 -56 56 -56s56 25 56 56z" />
    <glyph glyph-name="ring.cap" unicode="&#xe308;" horiz-adv-x="278" 
d="M46 869c0 51 42 93 92 93c51 0 93 -42 93 -93c0 -50 -42 -92 -93 -92s-92 41 -92 92zM194 869c0 31 -25 56 -56 56s-56 -25 -56 -56s25 -56 56 -56s56 25 56 56z" />
    <glyph glyph-name="hungarumlaut" unicode="&#x2dd;" 
d="M125 566l95 141h81l-129 -141h-47zM256 566l95 141h81l-129 -141h-47z" />
    <glyph glyph-name="hungarumlaut.cap" unicode="&#xe309;" 
d="M125 786l95 141h81l-129 -141h-47zM256 786l95 141h81l-129 -141h-47z" />
    <glyph glyph-name="dotaccent" unicode="&#x2d9;" horiz-adv-x="278" 
d="M176 619h-74v88h74v-88z" />
    <glyph glyph-name="dotaccent.cap" unicode="&#xe30a;" horiz-adv-x="278" 
d="M176 839h-74v88h74v-88z" />
    <glyph glyph-name="cedilla" unicode="&#xb8;" horiz-adv-x="278" 
d="M28 -161l7 28c29 -11 58 -20 89 -25c9 -1 34 4 42 11c11 10 12 18 12 32c0 28 -25 36 -48 36c-11 0 -22 -2 -33 -3l28 87h23l-15 -55c50 0 101 -7 101 -67c0 -47 -53 -66 -93 -66c-50 0 -66 8 -113 22z" />
    <glyph glyph-name="ogonek" unicode="&#x2db;" horiz-adv-x="278" 
d="M192 -134v-34c-19 -7 -42 -14 -69 -14c-36 0 -88 14 -88 74c0 57 53 89 96 108h40c-57 -36 -90 -60 -90 -103c0 -36 30 -42 50 -42c24 0 40 4 61 11z" />
    <glyph glyph-name="commaaccent" unicode="&#xe30c;" horiz-adv-x="278" 
d="M109 -74h67l-59 -145h-43z" />
    <glyph glyph-name="commaaccent.alt" unicode="&#xe30d;" horiz-adv-x="278" 
d="M151 564h-67l59 145h43z" />
    <glyph glyph-name="ellipsis" unicode="&#x2026;" horiz-adv-x="1000" 
d="M127 86h80v-86h-80v86zM460 86h80v-86h-80v86zM793 86h80v-86h-80v86z" />
    <glyph glyph-name="uni00AD" unicode="&#xad;" horiz-adv-x="278" 
d="M13 237v60h252v-60h-252z" />
    <glyph glyph-name="exclamdown" unicode="&#xa1;" horiz-adv-x="389" 
d="M155 542h80v-86h-80v86zM167 371h56l13 -551h-82z" />
    <glyph glyph-name="questiondown" unicode="&#xbf;" horiz-adv-x="500" 
d="M265 376h60v-108c-3 -95 -186 -153 -186 -279c0 -94 80 -121 162 -121c32 0 64 6 94 15v-61c-36 -11 -73 -14 -110 -14c-113 0 -211 57 -211 179c0 84 47 129 103 183c71 74 93 78 88 136v70zM255 542h80v-86h-80v86z" />
    <glyph glyph-name="quoteleft" unicode="&#x2018;" horiz-adv-x="278" 
d="M154 517h-81l72 205h52z" />
    <glyph glyph-name="quoteright" unicode="&#x2019;" horiz-adv-x="278" 
d="M124 722h81l-72 -205h-52z" />
    <glyph glyph-name="quotedblleft" unicode="&#x201c;" 
d="M384 517h-81l72 205h52zM200 517h-81l72 205h52z" />
    <glyph glyph-name="quotedblright" unicode="&#x201d;" 
d="M356 722h81l-72 -205h-52zM172 722h81l-72 -205h-52z" />
    <glyph glyph-name="quotesinglbase" unicode="&#x201a;" horiz-adv-x="278" 
d="M124 81h81l-72 -205h-52z" />
    <glyph glyph-name="quotedblbase" unicode="&#x201e;" 
d="M354 81h81l-72 -205h-52zM170 81h81l-72 -205h-52z" />
    <glyph glyph-name="guilsinglleft" unicode="&#x2039;" horiz-adv-x="278" 
d="M164 462h51l-93 -195l92 -195h-50l-106 195z" />
    <glyph glyph-name="guilsinglright" unicode="&#x203a;" horiz-adv-x="278" 
d="M114 72h-51l93 195l-92 195h50l106 -195z" />
    <glyph glyph-name="guillemotleft" unicode="&#xab;" 
d="M388 462h51l-93 -195l92 -195h-50l-106 195zM208 462h51l-93 -195l92 -195h-50l-106 195z" />
    <glyph glyph-name="guillemotright" unicode="&#xbb;" 
d="M168 72h-51l93 195l-92 195h50l106 -195zM348 72h-51l93 195l-92 195h50l106 -195z" />
    <glyph glyph-name="endash" unicode="&#x2013;" horiz-adv-x="500" 
d="M500 237h-500v60h500v-60z" />
    <glyph glyph-name="emdash" unicode="&#x2014;" horiz-adv-x="1000" 
d="M1000 237h-1000v60h1000v-60z" />
    <glyph glyph-name="bullet" unicode="&#x2022;" horiz-adv-x="500" 
d="M430 361c0 -98 -81 -180 -181 -180c-98 0 -179 82 -179 180c0 100 81 180 179 180c100 0 181 -80 181 -180z" />
    <glyph glyph-name="periodcentered" unicode="&#xb7;" horiz-adv-x="278" 
d="M179 294v-86h-80v86h80z" />
    <glyph glyph-name="uni2219" unicode="&#x2219;" horiz-adv-x="278" 
d="M179 294v-86h-80v86h80z" />
    <glyph glyph-name="dagger" unicode="&#x2020;" 
d="M248 487h-172v55h172v180h60v-180h172v-55h-172v-487h-60v487z" />
    <glyph glyph-name="daggerdbl" unicode="&#x2021;" 
d="M248 487h-172v55h172v180h60v-180h172v-55h-172v-255h172v-55h-172v-177h-60v177h-172v55h172v255z" />
    <glyph glyph-name="section" unicode="&#xa7;" 
d="M260 461c-40 -25 -84 -42 -84 -96c0 -48 66 -68 101 -83c39 22 96 42 96 94c0 53 -77 64 -113 85zM405 718v-55c-23 10 -75 19 -99 19c-50 0 -117 -16 -117 -78c0 -104 249 -89 249 -216c0 -59 -57 -100 -105 -122c60 -23 111 -57 111 -127c0 -108 -97 -154 -192 -154
c-43 0 -89 7 -129 22v57c41 -17 79 -24 124 -24c61 0 132 25 132 98c0 108 -268 66 -268 221c0 59 59 100 107 121c-50 27 -94 59 -94 121c0 101 90 136 176 136c35 0 71 -10 105 -19z" />
    <glyph glyph-name="paragraph" unicode="&#xb6;" horiz-adv-x="650" 
d="M258 -146v482c-102 -1 -192 87 -192 190c0 126 83 196 223 196h217v-868h-65v808h-118v-808h-65z" />
    <glyph glyph-name="brokenbar" unicode="&#xa6;" horiz-adv-x="222" 
d="M81 -175v350h60v-350h-60zM81 325v350h60v-350h-60z" />
    <glyph glyph-name="copyright" unicode="&#xa9;" horiz-adv-x="800" 
d="M401 -15c-208 0 -377 169 -377 377c0 206 169 375 377 375c207 0 375 -169 375 -375c0 -208 -168 -377 -375 -377zM84 362c0 -185 133 -317 317 -317c183 0 315 132 315 317c0 183 -132 315 -315 315c-184 0 -317 -132 -317 -315zM536 294h55c-8 -91 -87 -146 -173 -146
c-126 0 -208 94 -208 217c0 124 77 215 205 215c90 0 163 -51 176 -142h-55c-11 53 -61 92 -120 92c-99 0 -146 -78 -146 -164c0 -83 51 -168 148 -168c58 0 110 40 118 96z" />
    <glyph glyph-name="registered" unicode="&#xae;" horiz-adv-x="800" 
d="M401 -15c-208 0 -377 169 -377 377c0 206 169 375 377 375c207 0 375 -169 375 -375c0 -208 -168 -377 -375 -377zM401 45c183 0 315 132 315 317c0 183 -132 315 -315 315c-184 0 -317 -132 -317 -315c0 -185 133 -317 317 -317zM315 340v-191h-55v430h185
c112 0 150 -42 150 -119c0 -83 -58 -114 -133 -120l128 -191h-62l-121 191h-92zM315 390h76c60 0 144 -10 144 71c0 60 -50 68 -102 68h-118v-139z" />
    <glyph glyph-name="trademark" unicode="&#x2122;" horiz-adv-x="940" 
d="M349 722v-40h-132v-381h-55v381h-133v40h320zM523 722l120 -311h2l118 311h99v-421h-55v377h-2l-145 -377h-34l-145 377h-2v-377h-55v421h99z" />
    <glyph glyph-name="currency" unicode="&#xa4;" 
d="M32 110l43 42c-32 47 -48 91 -48 148c0 59 14 103 48 151l-43 43l52 53l44 -43c45 34 98 49 154 49c55 0 101 -18 146 -49l44 43l52 -53l-43 -43c34 -49 48 -95 48 -156c0 -56 -17 -97 -48 -143l43 -42l-52 -53l-44 43c-45 -33 -98 -50 -155 -50c-55 0 -101 19 -145 50
l-44 -43zM276 120c100 0 183 81 183 183c0 95 -80 182 -177 180c-104 2 -187 -79 -185 -183c-2 -97 83 -180 179 -180z" />
    <glyph glyph-name="Euro" unicode="&#x20ac;" 
d="M41 321h46v25c0 12 1 33 2 45h-60l14 46h52c19 144 109 270 265 270c91 0 142 -25 167 -64l-27 -68c-29 51 -76 72 -141 72c-117 0 -178 -103 -194 -210h303l-14 -46h-295c-1 -12 -3 -33 -3 -45v-25h279l-14 -46h-261c13 -117 65 -230 190 -230c64 0 109 14 152 61v-73
c-36 -33 -95 -48 -151 -48c-164 0 -243 132 -259 290h-65z" />
    <glyph glyph-name="cent" unicode="&#xa2;" 
d="M204 71l109 389c-10 1 -19 2 -29 2c-92 0 -149 -96 -149 -210c0 -76 25 -145 69 -181zM328 514l35 125h44l-38 -134c66 -23 113 -78 117 -157h-65c-3 52 -26 86 -67 102l-112 -402c13 -5 27 -8 42 -8c78 0 132 48 137 117h65c-16 -115 -82 -172 -196 -172
c-23 0 -45 3 -63 9l-36 -127h-45l41 144c-79 44 -117 139 -117 240c0 136 75 266 224 266c12 0 24 -1 34 -3z" />
    <glyph glyph-name="sterling" unicode="&#xa3;" 
d="M505 0h-445v60h60v312h-74v60h75c-7 146 26 275 219 275c101 0 185 -51 187 -143h-70c-2 52 -55 83 -125 83c-104 0 -147 -76 -147 -173v-42h162v-60h-162v-312h320v-60z" />
    <glyph glyph-name="florin" unicode="&#x192;" 
d="M233 408h-94l9 60h94l16 80c12 69 32 159 134 159c24 0 47 -3 71 -7l-8 -57c-14 3 -29 4 -44 4c-60 0 -75 -32 -83 -79l-20 -100h106l-8 -60h-107l-70 -363c-18 -93 -24 -237 -151 -237c-16 0 -31 2 -46 6l11 54c20 -5 35 -5 48 -1c39 12 49 72 58 109z" />
    <glyph glyph-name="yen" unicode="&#xa5;" 
d="M312 0h-65v136h-203v60h203v60h-203v60h201l-244 376h83l201 -319l200 319h70l-242 -376h199v-60h-200v-60h200v-60h-200v-136z" />
    <glyph glyph-name="ordfeminine" unicode="&#xaa;" horiz-adv-x="300" 
d="M232 574v-2c-51 -2 -159 8 -159 -61c0 -41 26 -53 66 -53c80 0 97 58 95 116h-2zM232 612v27c-4 50 -27 58 -73 58c-36 0 -69 -4 -75 -45h-46c9 62 60 85 122 85c72 0 117 -30 116 -99v-165c0 -16 3 -31 4 -46h-46l-3 40h-2c-14 -25 -53 -49 -97 -49
c-60 0 -109 34 -109 93c0 41 27 72 66 87c44 17 100 11 143 14z" />
    <glyph glyph-name="ordmasculine" unicode="&#xba;" horiz-adv-x="334" 
d="M65 578c0 -56 31 -120 102 -120c70 0 102 64 102 120c0 55 -32 119 -102 119c-71 0 -102 -64 -102 -119zM167 737c104 0 152 -80 152 -159c0 -80 -48 -160 -152 -160s-152 80 -152 160c0 79 48 159 152 159z" />
    <glyph glyph-name="onesuperior" unicode="&#xb9;" horiz-adv-x="333" 
d="M227 283h-51v361c-30 -26 -65 -46 -102 -62v45c39 14 75 38 104 65h49v-409z" />
    <glyph glyph-name="twosuperior" unicode="&#xb2;" horiz-adv-x="333" 
d="M315 283h-282v41c58 48 222 199 222 273c0 37 -33 62 -81 62c-54 0 -89 -34 -89 -71h-48c0 74 60 119 138 119c72 0 134 -35 134 -107c0 -97 -150 -219 -196 -269h202v-48z" />
    <glyph glyph-name="threesuperior" unicode="&#xb3;" horiz-adv-x="333" 
d="M146 476v48c58 -6 116 14 116 73c0 36 -38 62 -91 62c-57 0 -84 -26 -90 -62h-54c0 70 68 110 138 110c76 0 151 -32 151 -112c0 -51 -42 -84 -92 -94v-2c57 -10 99 -48 99 -104c0 -78 -79 -118 -154 -118c-79 0 -146 38 -148 117h54c1 -40 41 -69 93 -69
c60 0 101 27 101 75c0 63 -61 85 -123 76z" />
    <glyph glyph-name="fraction" unicode="&#x2044;" horiz-adv-x="167" 
d="M319 707l-415 -707h-55l417 707h53z" />
    <glyph glyph-name="uni2215" unicode="&#x2215;" horiz-adv-x="167" 
d="M319 707l-415 -707h-55l417 707h53z" />
    <glyph glyph-name="onequarter" unicode="&#xbc;" horiz-adv-x="834" 
d="M626 0v97h-212v31l201 287h62v-270h63v-48h-63v-97h-51zM652 707l-415 -707h-55l417 707h53zM626 145v213h-2l-140 -213h142zM259 283h-51v361c-30 -26 -65 -46 -102 -62v45c39 14 75 38 104 65h49v-409z" />
    <glyph glyph-name="onehalf" unicode="&#xbd;" horiz-adv-x="834" 
d="M652 707l-415 -707h-55l417 707h53zM259 283h-51v361c-30 -26 -65 -46 -102 -62v45c39 14 75 38 104 65h49v-409zM785 0h-282v41c58 48 222 199 222 273c0 37 -33 62 -81 62c-54 0 -89 -34 -89 -71h-48c0 74 60 119 138 119c72 0 134 -35 134 -107
c0 -97 -150 -219 -196 -269h202v-48z" />
    <glyph glyph-name="threequarters" unicode="&#xbe;" horiz-adv-x="834" 
d="M626 0v97h-212v31l201 287h62v-270h63v-48h-63v-97h-51zM652 707l-415 -707h-55l417 707h53zM626 145v213h-2l-140 -213h142zM146 476v48c58 -6 116 14 116 73c0 36 -38 62 -91 62c-57 0 -84 -26 -90 -62h-54c0 70 68 110 138 110c76 0 151 -32 151 -112
c0 -51 -42 -84 -92 -94v-2c57 -10 99 -48 99 -104c0 -78 -79 -118 -154 -118c-79 0 -146 38 -148 117h54c1 -40 41 -69 93 -69c60 0 101 27 101 75c0 63 -61 85 -123 76z" />
    <glyph glyph-name="perthousand" unicode="&#x2030;" horiz-adv-x="1000" 
d="M91 -15l418 722h53l-415 -722h-56zM175 662c-64 0 -89 -62 -89 -117s25 -117 89 -117s89 62 89 117s-25 117 -89 117zM478 264c-64 0 -89 -62 -89 -117s25 -117 89 -117s89 62 89 117s-25 117 -89 117zM478 -15c-96 0 -144 68 -144 162s48 162 144 162s144 -68 144 -162
s-48 -162 -144 -162zM175 383c-96 0 -144 68 -144 162s48 162 144 162s144 -68 144 -162s-48 -162 -144 -162zM825 -15c-96 0 -144 68 -144 162s48 162 144 162s144 -68 144 -162s-48 -162 -144 -162zM825 264c-64 0 -89 -62 -89 -117s25 -117 89 -117s89 62 89 117
s-25 117 -89 117z" />
    <glyph glyph-name="minus" unicode="&#x2212;" horiz-adv-x="660" 
d="M80 221v60h500v-60h-500z" />
    <glyph glyph-name="plusminus" unicode="&#xb1;" horiz-adv-x="660" 
d="M300 330v172h60v-172h220v-60h-220v-170h-60v170h-220v60h220zM80 0v60h500v-60h-500z" />
    <glyph glyph-name="multiply" unicode="&#xd7;" horiz-adv-x="660" 
d="M331 216l-214 -210l-37 36l214 211l-214 211l37 38l214 -212l212 212l37 -38l-212 -211l212 -211l-37 -36z" />
    <glyph glyph-name="divide" unicode="&#xf7;" horiz-adv-x="660" 
d="M80 221v60h500v-60h-500zM368 0h-75v88h75v-88zM368 414h-75v88h75v-88z" />
    <glyph glyph-name="notequal" unicode="&#x2260;" horiz-adv-x="660" 
d="M581 120h-287l-76 -144l-52 27l62 117h-149v60h181l68 130h-249v60h282l77 147l52 -28l-63 -119h154v-60h-186l-69 -130h255v-60z" />
    <glyph glyph-name="approxequal" unicode="&#x2248;" horiz-adv-x="660" 
d="M550 402h43c-8 -70 -44 -137 -123 -137c-43 0 -94 18 -145 37c-49 19 -97 36 -133 36c-45 0 -72 -39 -79 -80h-45c8 69 44 139 124 139c44 0 94 -17 143 -36c51 -19 97 -37 136 -37c48 0 70 35 79 78zM549 232h44c-8 -70 -44 -138 -124 -138c-43 0 -95 18 -144 37
s-97 36 -133 36c-45 0 -72 -39 -79 -80h-45c11 69 41 140 123 140c44 0 93 -17 144 -36c49 -19 97 -37 136 -37c47 0 69 35 78 78z" />
    <glyph glyph-name="lessequal" unicode="&#x2264;" horiz-adv-x="660" 
d="M581 108l-502 188v65l502 189v-65l-419 -157l419 -155v-65zM581 6h-502v59h502v-59z" />
    <glyph glyph-name="greaterequal" unicode="&#x2265;" horiz-adv-x="660" 
d="M581 296l-502 -188v65l420 155l-420 157v65l502 -189v-65zM581 6h-502v59h502v-59z" />
    <glyph glyph-name="logicalnot" unicode="&#xac;" horiz-adv-x="660" 
d="M520 112v206h-440v60h500v-266h-60z" />
    <glyph glyph-name="Delta" unicode="&#x2206;" horiz-adv-x="670" 
d="M657 0h-642l281 712h74zM561 62l-229 583l-226 -583h455z" />
    <glyph glyph-name="uni0394" unicode="&#x394;" horiz-adv-x="670" 
d="M657 0h-642l281 712h74zM561 62l-229 583l-226 -583h455z" />
    <glyph glyph-name="Omega" unicode="&#x2126;" horiz-adv-x="744" 
d="M685 0h-251v181c121 21 184 114 184 234c0 144 -111 245 -252 245s-252 -104 -252 -245c0 -117 63 -215 184 -234v-181h-251v58h197v82c-125 35 -197 149 -197 276c0 179 147 305 320 305c172 0 318 -127 318 -304c0 -128 -70 -243 -197 -277v-82h197v-58z" />
    <glyph glyph-name="uni03A9" unicode="&#x3a9;" horiz-adv-x="744" 
d="M685 0h-251v181c121 21 184 114 184 234c0 144 -111 245 -252 245s-252 -104 -252 -245c0 -117 63 -215 184 -234v-181h-251v58h197v82c-125 35 -197 149 -197 276c0 179 147 305 320 305c172 0 318 -127 318 -304c0 -128 -70 -243 -197 -277v-82h197v-58z" />
    <glyph glyph-name="mu" unicode="&#xb5;" 
d="M416 213v289h60v-389c0 -39 3 -79 5 -113h-62l-3 74l-2 2c-35 -62 -92 -91 -157 -91c-39 0 -78 10 -117 25v-202h-60v694h60v-324c0 -87 50 -138 132 -138c99 0 144 83 144 173z" />
    <glyph glyph-name="uni03BC" unicode="&#x3bc;" 
d="M416 213v289h60v-389c0 -39 2 -78 5 -113h-62l-3 74l-2 2c-35 -63 -92 -91 -157 -91c-39 0 -78 10 -117 25v-202h-60v694h60v-324c0 -88 49 -138 132 -138c99 0 144 83 144 173z" />
    <glyph glyph-name="pi" unicode="&#x3c0;" horiz-adv-x="563" 
d="M530 60v-49c-23 -11 -40 -17 -64 -17c-77 0 -76 56 -76 117v336h-224v-447h-60v447h-74v55h494v-55h-76v-343c0 -29 2 -54 38 -54c13 0 27 3 42 10z" />
    <glyph glyph-name="degree" unicode="&#xb0;" horiz-adv-x="400" 
d="M350 557c0 -83 -68 -150 -150 -150c-83 0 -150 67 -150 150c-1 82 67 150 150 150c82 0 150 -68 150 -150zM95 557c0 -61 44 -105 105 -105c60 0 105 44 105 105c0 60 -45 105 -106 105c-60 0 -105 -45 -104 -105z" />
    <glyph glyph-name="afii61289" unicode="&#x2113;" horiz-adv-x="500" 
d="M391 76l24 -35c-39 -37 -83 -55 -130 -55c-73 0 -122 41 -122 128v114l-58 -62h-2l-26 37l86 84v259c0 112 52 175 124 175c64 0 110 -48 110 -128c0 -99 -59 -203 -171 -318v-150c0 -69 41 -87 75 -87c27 0 57 11 88 38h2zM340 588c0 51 -22 85 -53 85s-61 -36 -61 -116
v-222c75 87 114 177 114 253z" />
    <glyph glyph-name="estimated" unicode="&#x212e;" horiz-adv-x="600" 
d="M157 295h291v145c-42 40 -91 60 -147 60s-104 -20 -144 -60v-145zM561 259h-404v-181c39 -39 88 -59 145 -59c84 0 142 36 193 120l35 -21c-61 -96 -123 -135 -228 -135c-157 0 -258 122 -258 276c0 155 101 276 258 276c154 0 259 -114 259 -276z" />
    <glyph glyph-name="infinity" unicode="&#x221e;" horiz-adv-x="741" 
d="M700 252c0 -83 -55 -148 -140 -148c-77 0 -138 56 -189 107c-59 -48 -109 -107 -190 -107c-84 0 -140 62 -140 145c0 81 53 148 138 148c78 0 139 -62 192 -112c53 51 107 113 187 113c85 0 142 -62 142 -146zM643 249c0 51 -28 92 -83 92c-56 0 -110 -58 -151 -93
c43 -37 94 -86 154 -86c51 0 80 38 80 87zM333 249c-39 34 -100 91 -155 91c-51 0 -80 -43 -80 -90c0 -51 31 -88 84 -88c55 0 113 52 151 87z" />
    <glyph glyph-name="partialdiff" unicode="&#x2202;" horiz-adv-x="496" 
d="M455 363c0 -147 -32 -375 -225 -375c-125 0 -199 107 -199 224c0 116 71 213 194 213c65 0 125 -33 166 -84c0 17 1 35 1 52c0 111 -40 273 -179 273c-47 0 -77 -19 -112 -46l-36 43c43 37 88 58 145 58c192 0 245 -202 245 -358zM386 278c-36 48 -91 91 -155 91
c-91 0 -137 -75 -137 -159c0 -80 46 -169 137 -169c116 0 150 145 155 237z" />
    <glyph glyph-name="integral" unicode="&#x222b;" horiz-adv-x="543" 
d="M406 736c0 -23 -16 -34 -37 -34c-37 0 -33 40 -52 40c-47 0 -34 -171 -34 -191v-504c0 -85 6 -260 -122 -260c-28 0 -60 14 -60 47c0 19 14 32 33 32c34 0 33 -38 50 -38c36 0 32 143 32 159l1 21v495c0 92 -22 283 119 283c30 0 70 -13 70 -50z" />
    <glyph glyph-name="radical" unicode="&#x221a;" horiz-adv-x="493" 
d="M502 786l-210 -1000h-66l-164 340l-46 -22l-24 50l100 48l158 -332l189 916h63z" />
    <glyph glyph-name="summation" unicode="&#x2211;" horiz-adv-x="604" 
d="M578 -214h-553v55l329 448l-315 441v56h527v-62h-442l309 -435l-328 -442h473v-61z" />
    <glyph glyph-name="product" unicode="&#x220f;" horiz-adv-x="711" 
d="M641 -214h-66v938h-438v-938h-66v1000h570v-1000z" />
    <glyph glyph-name="lozenge" unicode="&#x25ca;" horiz-adv-x="593" 
d="M498 356l-171 -391h-63l-169 391l169 391h63zM433 356l-137 325l-136 -325l136 -325z" />
    <glyph glyph-name="uniF8FF" unicode="&#xf8ff;" horiz-adv-x="512" 
d="M278 117h-56v67h56v-67zM271 234h-46l-2 17c0 37 4 64 13 81s23 36 46 59c43 40 50 59 50 83c0 48 -35 85 -76 85s-74 -27 -82 -95l-50 8c9 96 63 137 135 137s124 -51 124 -131c0 -43 -12 -73 -63 -120c-25 -22 -39 -39 -43 -52s-6 -37 -6 -72zM50 50h412v617h-412v-617
zM0 718h512v-718h-512v718z" />
    </font>
</defs>
</svg>
