<?xml version="1.0" standalone="no"?>
<!DOCTYPE svg PUBLIC "-//W3C//DTD SVG 1.1//EN" "http://www.w3.org/Graphics/SVG/1.1/DTD/svg11.dtd" >
<svg>
<metadata>
Created by FontForge 20120731 at Tue Jul 23 13:30:56 2019
 By www-data
Part of the digitally encoded machine readable outline data for producing the Typefaces provided is copyrighted (c) 2007 Linotype GmbH, www.linotype.com. All rights reserved. This software is the property of Linotype GmbH, and may not be reproduced, used, displayed, modified, disclosed or transferred without the express written approval of Linotype GmbH.  The digitally encoded machine readable software for producing the Typefaces licensed to you is copyrighted (c) 1987, 1991, 1993, 1994, 1998 Adobe Systems. All Rights Reserved. This software is the property of Adobe Systems Incorporated and its licensors, and may not be reproduced, used, displayed, modified, disclosed or transferred without the express written approval of Adobe. Univers is a trademark of Linotype GmbH and may be registered in certain jurisdictions. This typeface is original artwork of Adrian Frutiger. The design may be protected in certain jurisdictions.
</metadata>
<defs>
<font id="UniversLTPro-65Bold" horiz-adv-x="556" >
  <font-face 
    font-family="Univers LT Pro"
    font-weight="700"
    font-stretch="normal"
    units-per-em="1000"
    panose-1="2 11 7 3 3 5 2 2 2 4"
    ascent="724"
    descent="-276"
    x-height="505"
    cap-height="725"
    bbox="-167 -250 995 948"
    underline-thickness="50"
    underline-position="-50"
    stemh="97"
    stemv="148"
    unicode-range="U+000D-FB02"
  />
<missing-glyph horiz-adv-x="512" 
d="M278 117h-56v67h56v-67zM271 234h-46l-2 17c0 37 4 64 13 81s23 36 46 59c43 40 50 59 50 83c0 48 -35 85 -76 85s-74 -27 -82 -95l-50 8c9 96 63 137 135 137s124 -51 124 -131c0 -43 -12 -73 -63 -120c-25 -22 -39 -39 -43 -52s-6 -37 -6 -72zM50 50h412v617h-412v-617
zM0 718h512v-718h-512v718z" />
    <glyph glyph-name="napostrophe" unicode="&#x22;n" horiz-adv-x="611" 
d="M67 0v415c0 2 0 57 -3 92h142l4 -76c14 23 54 88 164 88c99 0 141 -60 154 -95c11 -31 14 -57 14 -151v-273h-151v314c0 21 0 39 -8 55c-11 22 -34 43 -72 43c-32 0 -61 -15 -77 -39c-9 -13 -18 -38 -18 -77v-296h-149zM49 722h106l-79 -159h-67z" />
    <glyph glyph-name="IJ" unicode="IJ" horiz-adv-x="822" 
d="M54 0v725h155v-725h-155zM275 234h152c2 -78 21 -128 85 -128c60 0 74 42 79 61c6 30 6 75 6 113v443h157v-444c0 -111 -21 -199 -112 -255c-28 -17 -70 -31 -140 -31c-78 0 -143 16 -189 88c-35 53 -37 116 -38 153z" />
    <glyph glyph-name="fi" unicode="fi" horiz-adv-x="611" 
d="M78 0v400h-76v105h76v69c0 89 29 161 173 161c11 0 39 0 80 -5v-103c-15 2 -19 3 -31 3c-75 0 -75 -40 -75 -66v-59h93v-105h-93v-400h-147zM393 593v129h158v-129h-158zM398 0v506h148v-506h-148z" />
    <glyph glyph-name="fl" unicode="fl" horiz-adv-x="611" 
d="M80 0v400h-75v105h75v69c0 89 30 161 174 161c10 0 38 0 79 -5v-103c-14 2 -18 3 -30 3c-76 0 -76 -40 -76 -66v-59h94v-105h-94v-400h-147zM398 0v723h148v-723h-148z" />
    <glyph glyph-name="ij" unicode="ij" horiz-adv-x="549" 
d="M60 593v129h158v-129h-158zM65 0v506h148v-506h-148zM269 -194v100c67 -3 67 60 67 86v515h148v-552c0 -95 -39 -153 -165 -153c-8 0 -28 0 -50 4zM331 593v129h158v-129h-158z" />
    <glyph glyph-name=".notdef" horiz-adv-x="512" 
d="M278 117h-56v67h56v-67zM271 234h-46l-2 17c0 37 4 64 13 81s23 36 46 59c43 40 50 59 50 83c0 48 -35 85 -76 85s-74 -27 -82 -95l-50 8c9 96 63 137 135 137s124 -51 124 -131c0 -43 -12 -73 -63 -120c-25 -22 -39 -39 -43 -52s-6 -37 -6 -72zM50 50h412v617h-412v-617
zM0 718h512v-718h-512v718z" />
    <glyph glyph-name=".null" horiz-adv-x="500" 
 />
    <glyph glyph-name="CR" unicode="&#xd;" horiz-adv-x="0" 
 />
    <glyph glyph-name="space" unicode=" " horiz-adv-x="278" 
 />
    <glyph glyph-name="exclam" unicode="!" horiz-adv-x="389" 
d="M244 197h-103l-18 526h134zM129 0v133h127v-133h-127z" />
    <glyph glyph-name="quotedbl" unicode="&#x22;" horiz-adv-x="474" 
d="M73 697h133l-27 -248h-79zM265 697h132l-26 -248h-79z" />
    <glyph glyph-name="numbersign" unicode="#" 
d="M-9 175v110h103l22 121h-82v110h103l33 181h128l-33 -181h95l33 181h129l-34 -181h83v-110h-103l-22 -121h82v-110h-103l-32 -175h-128l33 175h-96l-32 -175h-129l32 175h-82zM222 285h95l23 121h-95z" />
    <glyph glyph-name="dollar" unicode="$" 
d="M24 215h136c-3 -100 64 -111 85 -111v177c-107 30 -207 69 -207 204c0 36 8 85 51 132c57 62 125 67 162 71v84h55v-82c53 -4 113 -13 160 -60c48 -48 49 -104 50 -137h-134c-3 74 -34 87 -78 92v-178c112 -28 219 -62 219 -205c0 -80 -46 -133 -85 -161
c-52 -37 -105 -41 -141 -43v-100h-53v100c-95 -3 -150 45 -165 59c-42 39 -53 89 -55 158zM250 422v161c-52 -3 -76 -36 -76 -78c0 -57 37 -71 76 -83zM299 270v-168c41 4 81 32 81 85c0 42 -23 67 -81 83z" />
    <glyph glyph-name="percent" unicode="%" horiz-adv-x="889" 
d="M50 569c0 52 1 193 167 193c139 0 163 -89 163 -183c0 -50 0 -200 -170 -200c-118 0 -160 82 -160 190zM158 573c0 -77 13 -112 55 -112c34 0 58 22 58 117c0 41 -3 106 -54 106c-59 0 -59 -81 -59 -111zM510 182c0 51 0 192 167 192c138 0 163 -89 163 -182
c0 -51 0 -201 -171 -201c-118 0 -159 83 -159 191zM617 185c0 -76 13 -112 56 -112c34 0 58 22 58 117c0 41 -4 106 -55 106c-59 0 -59 -80 -59 -111zM593 769h75l-380 -781h-75z" />
    <glyph glyph-name="ampersand" unicode="&#x26;" horiz-adv-x="778" 
d="M559 449h148c0 -121 -21 -204 -81 -299l147 -152h-187l-56 67c-46 -35 -112 -84 -234 -84c-157 0 -273 79 -273 218c0 35 8 87 52 142c37 46 74 68 99 84c-24 20 -87 71 -87 153c0 43 24 164 221 164c187 0 216 -106 216 -158c0 -111 -102 -166 -140 -187l146 -147
c28 77 29 122 29 199zM307 475c21 15 73 57 73 105c0 39 -28 66 -72 66s-73 -26 -73 -64c0 -45 62 -99 72 -107zM439 145l-182 185c-44 -29 -78 -65 -78 -119c0 -76 61 -120 127 -120c47 0 100 27 133 54z" />
    <glyph glyph-name="quotesingle" unicode="'" horiz-adv-x="238" 
d="M78 449l-27 248h133l-27 -248h-79z" />
    <glyph glyph-name="parenleft" unicode="(" horiz-adv-x="333" 
d="M164 757h109c-33 -100 -88 -262 -88 -441c0 -134 28 -234 87 -439h-109c-57 139 -101 284 -101 434c0 154 46 303 102 446z" />
    <glyph glyph-name="parenright" unicode=")" horiz-adv-x="333" 
d="M169 -123h-109c33 100 88 262 88 441c0 135 -28 234 -87 439h109c57 -138 101 -284 101 -433c0 -154 -46 -303 -102 -447z" />
    <glyph glyph-name="asterisk" unicode="*" 
d="M67 465v106l152 -22l-94 119l93 51l56 -138l59 141l93 -55l-98 -118l153 18l-2 -106l-149 23l94 -123l-93 -51l-58 141l-58 -142l-90 54l93 122z" />
    <glyph glyph-name="plus" unicode="+" horiz-adv-x="584" 
d="M225 0v202h-199v129h199v202h134v-202h199v-129h-199v-202h-134z" />
    <glyph glyph-name="comma" unicode="," horiz-adv-x="278" 
d="M102 133h148l-119 -246h-103z" />
    <glyph glyph-name="hyphen" unicode="-" horiz-adv-x="333" 
d="M44 208v113h248v-113h-248z" />
    <glyph glyph-name="period" unicode="." horiz-adv-x="278" 
d="M74 0v133h127v-133h-127z" />
    <glyph glyph-name="slash" unicode="/" horiz-adv-x="444" 
d="M300 718h115l-269 -718h-117z" />
    <glyph glyph-name="zero" unicode="0" 
d="M38 347c0 93 19 361 243 361c98 0 156 -53 182 -92c36 -53 63 -121 63 -252c0 -162 -37 -375 -247 -375c-179 0 -241 172 -241 358zM376 339c0 44 -5 126 -18 172c-4 19 -21 81 -76 81c-43 0 -62 -39 -69 -60c-23 -71 -23 -178 -23 -195c0 -119 18 -230 93 -230
c80 0 93 136 93 232z" />
    <glyph glyph-name="one" unicode="1" 
d="M95 454v139c65 28 127 63 185 105h129v-698h-151v543c-29 -22 -87 -58 -163 -89z" />
    <glyph glyph-name="two" unicode="2" 
d="M25 0v141l181 165c32 29 68 61 105 106c39 47 48 69 48 101c0 53 -31 89 -83 89c-80 0 -87 -82 -88 -102h-153c0 28 0 80 41 131c40 50 114 76 199 76c152 0 236 -82 236 -190c0 -72 -28 -165 -330 -408c101 2 113 3 192 4c107 2 119 2 142 3v-116h-490z" />
    <glyph glyph-name="three" unicode="3" 
d="M22 190h152c1 -22 7 -93 90 -93c56 0 90 41 90 95c0 103 -99 103 -172 103v117c70 2 173 4 173 104c0 55 -41 83 -86 83c-43 0 -85 -29 -85 -87h-153c3 31 6 75 41 118c46 56 120 77 194 77c178 0 235 -114 235 -190c0 -117 -103 -149 -134 -158c22 -7 51 -16 83 -43
c49 -41 57 -92 57 -125c0 -118 -108 -206 -253 -206c-50 0 -123 11 -168 47c-62 51 -64 130 -64 158z" />
    <glyph glyph-name="four" unicode="4" 
d="M296 152h-280v135l280 411h149l-1 -431h95v-115h-95v-152h-148v152zM306 525l-178 -261h176v184c0 9 1 59 2 77z" />
    <glyph glyph-name="five" unicode="5" 
d="M31 172h148c-1 -16 12 -78 82 -78c54 0 103 39 103 131c0 67 -26 125 -93 125s-84 -54 -89 -70l-145 4l16 413h423v-114h-291l-9 -173c22 19 55 50 132 50c112 0 206 -82 206 -222c0 -119 -70 -253 -249 -253c-73 0 -147 19 -195 76c-35 42 -38 85 -39 111z" />
    <glyph glyph-name="six" unicode="6" 
d="M519 525h-148c-3 50 -36 69 -73 69c-100 0 -103 -124 -105 -196c25 23 64 56 137 56c97 0 200 -69 200 -221c0 -77 -21 -133 -74 -182c-46 -43 -100 -65 -178 -65c-241 0 -241 234 -241 317c0 140 18 285 113 355c61 46 134 49 161 49c105 0 205 -54 208 -182zM287 98
c43 0 96 30 96 125c0 77 -40 120 -90 120c-25 0 -101 -15 -101 -123c0 -86 46 -122 95 -122z" />
    <glyph glyph-name="seven" unicode="7" 
d="M37 581v116h473v-124l-240 -573h-167l255 581h-321z" />
    <glyph glyph-name="eight" unicode="8" 
d="M174 366c-35 11 -132 41 -132 149c0 85 71 195 241 195c140 0 237 -80 237 -189c0 -84 -66 -142 -137 -153c28 -8 75 -20 112 -72c24 -34 32 -70 32 -104c0 -128 -119 -203 -256 -203c-142 0 -240 91 -240 203c0 54 21 93 51 122c34 33 66 43 92 52zM281 423
c51 0 94 34 94 90c0 57 -46 87 -93 87c-50 0 -91 -34 -91 -87c0 -49 35 -90 90 -90zM281 96c42 0 99 28 99 106c0 63 -47 101 -100 101c-58 0 -100 -44 -100 -103c0 -71 53 -104 101 -104z" />
    <glyph glyph-name="nine" unicode="9" 
d="M33 170h151c4 -42 31 -68 73 -68c104 0 112 108 109 204c-50 -45 -95 -48 -126 -48c-171 0 -215 136 -215 219c0 130 93 229 247 229c240 0 246 -228 246 -340c0 -295 -100 -379 -269 -379c-39 0 -216 0 -216 183zM267 373c74 0 96 65 96 114c0 61 -32 106 -93 106
c-71 0 -97 -57 -97 -110c0 -24 7 -110 94 -110z" />
    <glyph glyph-name="colon" unicode=":" horiz-adv-x="278" 
d="M76 0v134h126v-134h-126zM76 370v135h126v-135h-126z" />
    <glyph glyph-name="semicolon" unicode=";" horiz-adv-x="278" 
d="M80 370v135h126v-135h-126zM87 133h148l-119 -246h-103z" />
    <glyph glyph-name="less" unicode="&#x3c;" horiz-adv-x="584" 
d="M26 200v134l532 206v-140l-372 -133l372 -133v-141z" />
    <glyph glyph-name="equal" unicode="=" horiz-adv-x="584" 
d="M26 318v129h532v-129h-532zM26 86v129h532v-129h-532z" />
    <glyph glyph-name="greater" unicode="&#x3e;" horiz-adv-x="584" 
d="M559 200l-533 -207v141l372 133l-372 133v140l533 -206v-134z" />
    <glyph glyph-name="question" unicode="?" horiz-adv-x="500" 
d="M256 162h-114v93c0 22 0 46 37 88l44 49c40 45 76 95 76 145c0 24 -8 99 -120 99c-46 0 -78 -9 -133 -24v104c38 10 89 20 169 20c118 0 238 -53 238 -187c0 -19 -2 -58 -28 -96c-30 -43 -41 -53 -52 -63l-57 -51c-53 -48 -60 -63 -60 -96v-81zM139 0v120h120v-120h-120z
" />
    <glyph glyph-name="at" unicode="@" horiz-adv-x="975" 
d="M773 135l34 -45c-113 -82 -204 -108 -305 -108c-226 0 -384 151 -384 370c0 239 186 386 401 386c178 0 338 -102 338 -301c0 -141 -88 -258 -204 -258c-23 0 -55 6 -76 32c-14 18 -16 35 -17 47c-38 -71 -94 -85 -133 -85c-76 0 -134 56 -134 153c0 117 85 237 199 237
c27 0 60 -7 82 -27c14 -13 19 -24 23 -34l13 45h99l-60 -206c-6 -19 -13 -43 -13 -61c0 -24 17 -35 34 -35c51 0 118 77 118 197c0 176 -146 238 -271 238c-178 0 -334 -117 -334 -332c0 -192 136 -308 323 -308c45 0 146 2 267 95zM411 311c0 -10 2 -66 50 -66
c37 0 57 38 67 60c27 58 37 135 37 139c0 23 -16 47 -49 47c-53 0 -105 -91 -105 -180z" />
    <glyph glyph-name="A" unicode="A" horiz-adv-x="722" 
d="M266 723h184l251 -723h-156l-52 156h-286l-54 -156h-148zM247 273h207l-100 308z" />
    <glyph glyph-name="B" unicode="B" horiz-adv-x="667" 
d="M68 0v722h270c42 0 123 0 178 -34c66 -42 81 -112 81 -154c0 -27 -5 -74 -42 -108c-5 -6 -40 -38 -82 -49v-2c110 -20 153 -100 153 -176c0 -85 -50 -142 -106 -170c-56 -29 -154 -29 -182 -29h-270zM216 611v-183h108c44 0 124 0 124 93c0 90 -76 90 -127 90h-105z
M216 316v-200h105c71 0 151 0 151 97c0 103 -93 103 -167 103h-89z" />
    <glyph glyph-name="C" unicode="C" horiz-adv-x="667" 
d="M634 487h-158c-3 25 -12 127 -117 127c-115 0 -163 -120 -163 -269c0 -43 0 -248 151 -248c65 0 127 41 130 137h163c-3 -43 -7 -110 -65 -170c-64 -66 -145 -81 -211 -81c-249 0 -330 184 -330 363c0 229 128 381 331 381c158 0 269 -96 269 -240z" />
    <glyph glyph-name="D" unicode="D" horiz-adv-x="722" 
d="M65 0v721l239 -1c40 0 162 -1 249 -65c91 -67 123 -181 123 -284c0 -222 -119 -338 -256 -363c-27 -5 -57 -8 -130 -8h-225zM222 604v-485c17 -1 43 -2 61 -2c66 0 123 5 168 50c61 61 65 169 65 204c0 102 -35 196 -132 223c-32 9 -73 14 -162 10z" />
    <glyph glyph-name="E" unicode="E" horiz-adv-x="611" 
d="M74 0v723h484v-118h-329v-172h308v-118h-308v-195h340v-120h-495z" />
    <glyph glyph-name="F" unicode="F" 
d="M69 0v722h466v-116h-311v-178h290v-120h-290v-308h-155z" />
    <glyph glyph-name="G" unicode="G" horiz-adv-x="778" 
d="M715 501h-161c-1 19 -2 45 -20 73c-30 48 -87 56 -121 56c-176 0 -211 -164 -211 -275c0 -49 7 -137 60 -194c36 -40 84 -62 170 -62c75 0 101 9 118 14v152h-140v120h295v-361c-45 -15 -119 -40 -264 -40c-165 0 -250 40 -307 96c-81 79 -96 194 -96 270
c0 256 160 393 379 393c93 0 189 -26 246 -91c48 -55 51 -112 52 -151z" />
    <glyph glyph-name="H" unicode="H" horiz-adv-x="722" 
d="M67 0v723h155v-289h273v289h157v-723h-155v317h-275v-317h-155z" />
    <glyph glyph-name="I" unicode="I" horiz-adv-x="278" 
d="M60 0v725h155v-725h-155z" />
    <glyph glyph-name="J" unicode="J" 
d="M9 234h152c2 -78 21 -128 85 -128c60 0 74 42 79 61c6 30 6 75 6 113v443h157v-444c0 -111 -21 -199 -112 -255c-28 -17 -70 -31 -140 -31c-78 0 -143 16 -189 88c-35 53 -37 116 -38 153z" />
    <glyph glyph-name="K" unicode="K" horiz-adv-x="667" 
d="M67 0v721h155v-311l242 313h181l-265 -324l288 -399h-193l-253 368v-368h-155z" />
    <glyph glyph-name="L" unicode="L" 
d="M69 0v722h158v-599h310v-123h-468z" />
    <glyph glyph-name="M" unicode="M" horiz-adv-x="944" 
d="M60 0v723h253l153 -526l165 526h246v-723h-154v620l-197 -620h-128l-193 620v-620h-145z" />
    <glyph glyph-name="N" unicode="N" horiz-adv-x="778" 
d="M72 0v723h224l271 -569v569h144v-723h-213l-280 600v-600h-146z" />
    <glyph glyph-name="O" unicode="O" horiz-adv-x="778" 
d="M42 351c0 192 87 387 347 387c77 0 183 -18 254 -98c77 -88 92 -201 92 -272c0 -105 -32 -217 -91 -283c-80 -90 -197 -103 -257 -103c-95 0 -190 30 -256 99c-79 84 -89 204 -89 270zM204 356c0 -69 11 -146 54 -202c22 -30 59 -58 131 -58c63 0 106 22 135 67
c24 36 49 92 49 207c0 35 -3 85 -18 129c-30 89 -91 128 -165 128c-58 0 -104 -24 -133 -61c-41 -50 -53 -128 -53 -210z" />
    <glyph glyph-name="P" unicode="P" horiz-adv-x="611" 
d="M65 0v721h223c104 0 191 -7 251 -79c38 -46 44 -98 44 -135c0 -84 -35 -155 -92 -192c-53 -34 -126 -34 -164 -34h-105v-281h-157zM218 604v-208h62c50 0 143 0 143 110c0 98 -83 98 -127 98h-78z" />
    <glyph glyph-name="Q" unicode="Q" horiz-adv-x="778" 
d="M761 111v-113c-45 1 -131 2 -178 2c-18 0 -68 -3 -117 -5c-49 -3 -97 -6 -114 -6c-270 0 -318 251 -318 367c0 197 103 381 348 381c187 0 326 -127 326 -364c0 -164 -75 -237 -109 -269c33 6 100 10 162 7zM194 365c0 -102 30 -264 177 -264c152 0 180 158 180 274
c0 103 -23 152 -45 185c-18 28 -60 67 -130 67c-136 0 -182 -130 -182 -262z" />
    <glyph glyph-name="R" unicode="R" horiz-adv-x="667" 
d="M60 0v723h277c80 1 161 1 219 -49c45 -39 63 -92 63 -139c0 -135 -116 -167 -151 -177c109 -10 117 -72 130 -166c11 -85 17 -120 22 -140c8 -32 14 -40 22 -52h-171c-7 40 -29 223 -39 251c-14 41 -52 41 -78 41h-136v-292h-158zM213 609v-202h125c18 0 54 0 79 20
c11 8 40 33 40 84c0 49 -24 72 -38 81c-24 17 -53 17 -102 17h-104z" />
    <glyph glyph-name="S" unicode="S" horiz-adv-x="667" 
d="M35 231h158c0 -34 -2 -137 131 -137c84 0 137 40 137 101c0 64 -45 75 -137 97c-172 43 -266 94 -266 219c0 119 85 224 286 224c75 0 164 -17 218 -85c41 -52 41 -110 41 -134h-149c-2 25 -10 110 -117 110c-72 0 -119 -39 -119 -98c0 -67 53 -79 157 -105
c125 -30 248 -64 248 -205c0 -130 -108 -235 -308 -235c-277 0 -279 178 -280 248z" />
    <glyph glyph-name="T" unicode="T" horiz-adv-x="611" 
d="M229 0v603h-215v120h586v-120h-215v-603h-156z" />
    <glyph glyph-name="U" unicode="U" horiz-adv-x="778" 
d="M72 721h155v-440c0 -79 6 -178 157 -178c25 0 100 1 140 63c15 22 23 50 23 123v432h151v-451c0 -215 -171 -284 -317 -284c-72 0 -204 16 -272 125c-35 55 -37 111 -37 178v432z" />
    <glyph glyph-name="V" unicode="V" horiz-adv-x="722" 
d="M12 720h169l189 -567l190 567h153l-266 -720h-169z" />
    <glyph glyph-name="W" unicode="W" horiz-adv-x="1000" 
d="M15 720h160l112 -541l141 541h175l127 -541l117 541h148l-184 -722h-172l-131 552l-141 -552h-176z" />
    <glyph glyph-name="X" unicode="X" horiz-adv-x="722" 
d="M30 723h191l146 -246l156 246h166l-238 -348l252 -375h-190l-161 272l-173 -272h-166l254 374z" />
    <glyph glyph-name="Y" unicode="Y" horiz-adv-x="667" 
d="M16 720h181l149 -329l152 329h159l-244 -457v-263h-153v265z" />
    <glyph glyph-name="Z" unicode="Z" horiz-adv-x="611" 
d="M27 0v132l378 473l-355 -3v118h523v-137l-377 -470l385 6v-119h-554z" />
    <glyph glyph-name="bracketleft" unicode="[" horiz-adv-x="333" 
d="M287 752v-92h-109v-690h109v-93h-229v875h229z" />
    <glyph glyph-name="backslash" unicode="\" horiz-adv-x="278" 
d="M29 718h115l271 -718h-117z" />
    <glyph glyph-name="bracketright" unicode="]" horiz-adv-x="333" 
d="M46 660v92h229v-875h-229v93h109v690h-109z" />
    <glyph glyph-name="asciicircum" unicode="^" horiz-adv-x="584" 
d="M51 264l181 433h117l181 -433h-138l-103 272l-100 -272h-138z" />
    <glyph glyph-name="underscore" unicode="_" horiz-adv-x="500" 
d="M0 -125v50h500v-50h-500z" />
    <glyph glyph-name="grave" unicode="`" horiz-adv-x="278" 
d="M128 730l84 -145h-85l-139 145h140z" />
    <glyph glyph-name="a" unicode="a" 
d="M502 0h-134c-5 31 -5 54 -5 69c-56 -81 -123 -81 -151 -81c-73 0 -106 21 -126 40c-30 30 -44 71 -44 111s14 114 107 157c62 28 151 28 200 28c0 33 -1 49 -7 67c-13 37 -52 42 -66 42c-21 0 -43 -9 -56 -28c-11 -17 -11 -33 -11 -45h-145c1 27 4 81 57 119
c46 33 105 41 153 41c42 0 130 -7 180 -65c34 -41 35 -101 35 -124l1 -203c0 -43 3 -86 12 -128zM349 238c-95 8 -163 -22 -163 -82c0 -34 23 -72 72 -72c27 0 49 13 63 29c26 32 28 71 28 125z" />
    <glyph glyph-name="b" unicode="b" horiz-adv-x="611" 
d="M60 0v721h148v-277c50 66 117 68 143 68c123 0 220 -97 220 -267c0 -189 -110 -255 -211 -255c-26 0 -106 2 -152 81c-1 -16 -2 -40 -5 -71h-143zM420 240c0 40 -2 173 -109 173c-109 0 -109 -124 -109 -156c0 -115 49 -170 116 -170c102 0 102 127 102 153z" />
    <glyph glyph-name="c" unicode="c" horiz-adv-x="500" 
d="M477 326h-145c-2 18 -8 93 -65 93c-70 0 -78 -106 -78 -161c0 -28 3 -118 37 -155c14 -15 29 -17 40 -17c16 0 62 7 68 97h146c-2 -39 -7 -100 -65 -149c-36 -31 -81 -47 -144 -47c-67 0 -126 15 -172 67c-44 51 -64 118 -64 199c0 230 169 262 236 262
c94 0 205 -52 206 -189z" />
    <glyph glyph-name="d" unicode="d" horiz-adv-x="611" 
d="M399 443v279h149v-640c0 -30 2 -63 4 -82h-150l-4 73c-10 -18 -20 -37 -51 -57c-37 -24 -76 -26 -98 -26c-135 0 -215 93 -215 251c0 167 91 271 223 271c91 0 129 -51 142 -69zM184 245c0 -84 28 -159 102 -159c43 0 78 26 94 57c22 42 24 94 24 119
c0 99 -43 153 -110 153c-99 0 -110 -119 -110 -170z" />
    <glyph glyph-name="e" unicode="e" 
d="M523 215h-339c0 -33 0 -135 103 -135c37 0 74 14 88 70h135c-2 -24 -7 -67 -48 -110c-37 -39 -103 -59 -177 -59c-43 0 -125 8 -178 63c-46 48 -65 116 -65 197c0 82 20 180 105 239c39 26 87 42 142 42c72 0 158 -28 204 -122c34 -69 32 -143 30 -185zM189 308h183
c0 23 -2 113 -88 113c-65 0 -92 -54 -95 -113z" />
    <glyph glyph-name="f" unicode="f" horiz-adv-x="333" 
d="M75 0v400h-75v105h75v69c0 89 30 161 174 161c10 0 38 0 80 -5v-103c-15 2 -19 3 -31 3c-76 0 -76 -40 -76 -66v-59h94v-105h-94v-400h-147z" />
    <glyph glyph-name="g" unicode="g" horiz-adv-x="611" 
d="M405 503h139c-4 -40 -7 -74 -7 -125v-373c0 -186 -155 -204 -252 -204c-72 0 -213 9 -222 162h142c2 -15 9 -70 88 -70c44 0 82 21 92 66c6 25 6 43 7 120c-47 -62 -100 -69 -136 -69c-145 0 -213 126 -213 248c0 128 71 250 216 250c92 0 126 -50 141 -72zM191 258
c0 -25 0 -147 99 -147c104 0 104 122 104 144c0 57 -11 154 -101 154c-56 0 -102 -43 -102 -151z" />
    <glyph glyph-name="h" unicode="h" horiz-adv-x="611" 
d="M69 0v722h147v-286c17 24 54 76 146 76c75 0 123 -37 147 -68c18 -25 33 -71 33 -137v-307h-147v302c0 29 0 110 -83 110c-42 0 -95 -24 -95 -103l1 -309h-149z" />
    <glyph glyph-name="i" unicode="i" horiz-adv-x="278" 
d="M60 593v129h158v-129h-158zM65 0v506h148v-506h-148z" />
    <glyph glyph-name="j" unicode="j" horiz-adv-x="278" 
d="M-2 -194v100c67 -3 67 60 67 86v515h148v-552c0 -95 -39 -153 -165 -153c-8 0 -28 0 -50 4zM60 593v129h158v-129h-158z" />
    <glyph glyph-name="k" unicode="k" 
d="M67 0v723h147v-426l153 211h167l-173 -220l184 -288h-175l-156 275v-275h-147z" />
    <glyph glyph-name="l" unicode="l" horiz-adv-x="278" 
d="M65 0v723h148v-723h-148z" />
    <glyph glyph-name="m" unicode="m" horiz-adv-x="944" 
d="M68 0v410c0 32 -2 63 -5 95h143l5 -65c16 22 55 76 156 76c116 0 149 -71 159 -95c42 81 110 94 162 94c102 0 143 -61 154 -81c27 -44 25 -105 25 -149v-285h-149v297c0 54 -8 114 -85 114c-89 0 -91 -83 -91 -158v-253h-149v300c0 39 -1 111 -83 111
c-93 0 -93 -80 -93 -114v-297h-149z" />
    <glyph glyph-name="n" unicode="n" horiz-adv-x="611" 
d="M67 0v415c0 2 0 57 -3 92h142l4 -76c14 23 54 88 164 88c99 0 141 -60 154 -95c11 -31 14 -57 14 -151v-273h-151v314c0 21 0 39 -8 55c-11 22 -34 43 -72 43c-32 0 -61 -15 -77 -39c-9 -13 -18 -38 -18 -77v-296h-149z" />
    <glyph glyph-name="o" unicode="o" horiz-adv-x="611" 
d="M42 248c0 122 62 269 261 269c183 0 262 -124 262 -265c0 -142 -82 -270 -265 -270c-144 0 -258 89 -258 266zM194 247c0 -113 38 -162 111 -162c65 0 109 39 109 173c0 67 -13 160 -111 160c-108 0 -109 -125 -109 -171z" />
    <glyph glyph-name="p" unicode="p" horiz-adv-x="611" 
d="M60 505h144l4 -72c46 81 130 82 154 82c131 0 210 -98 210 -252c0 -143 -74 -270 -220 -270c-91 0 -128 48 -141 65v-252h-151v699zM314 90c70 0 108 67 108 167c0 60 -15 163 -102 163c-48 0 -116 -36 -116 -172c0 -30 1 -158 110 -158z" />
    <glyph glyph-name="q" unicode="q" horiz-adv-x="611" 
d="M407 506h146c0 -9 -3 -77 -3 -97v-601h-152v251c-15 -18 -55 -66 -140 -66c-102 0 -222 73 -222 266c0 194 113 257 213 257c104 0 141 -63 153 -83zM187 255c0 -33 4 -89 33 -128c23 -32 57 -36 78 -36c96 0 108 106 108 161s-14 167 -116 167c-85 0 -103 -88 -103 -164
z" />
    <glyph glyph-name="r" unicode="r" horiz-adv-x="389" 
d="M65 0v381c0 24 -4 97 -7 126h139l3 -97c19 43 52 104 172 98v-133c-150 14 -159 -63 -159 -126v-249h-148z" />
    <glyph glyph-name="s" unicode="s" horiz-adv-x="500" 
d="M29 146h139c2 -32 22 -69 84 -69c53 0 78 30 78 60c0 23 -12 41 -70 57l-92 25c-41 12 -128 37 -128 140c0 98 90 158 221 158c104 0 188 -48 192 -149h-135c-4 56 -49 60 -72 60c-40 0 -70 -19 -70 -50c0 -34 25 -41 69 -53l91 -25c92 -25 135 -72 135 -141
c0 -87 -75 -174 -232 -174c-65 0 -127 14 -173 62c-33 35 -36 75 -37 99z" />
    <glyph glyph-name="t" unicode="t" horiz-adv-x="389" 
d="M362 104v-97c-48 -13 -91 -16 -115 -16c-149 0 -149 94 -149 136v277h-97v98h97v99l147 54v-153h120v-98h-120v-228c1 -46 1 -75 67 -75c22 0 32 1 50 3z" />
    <glyph glyph-name="u" unicode="u" horiz-adv-x="611" 
d="M60 505h150v-301c0 -44 0 -111 79 -111c95 0 95 71 95 157v255h152v-333c2 -109 3 -122 3 -135c1 -14 2 -23 4 -37h-144l-5 67c-15 -22 -53 -80 -149 -80c-68 0 -124 31 -152 68c-33 41 -33 111 -33 136v314z" />
    <glyph glyph-name="v" unicode="v" 
d="M7 505h158l114 -343l116 343h143l-182 -505h-164z" />
    <glyph glyph-name="w" unicode="w" horiz-adv-x="889" 
d="M5 505h157l93 -381l107 381h163l106 -381l99 381h147l-173 -505h-161l-104 374l-106 -374h-163z" />
    <glyph glyph-name="x" unicode="x" 
d="M16 505h175l95 -165l99 165h154l-164 -246l169 -259h-175l-102 185l-103 -185h-155l169 271z" />
    <glyph glyph-name="y" unicode="y" 
d="M14 505h160l111 -350l113 350h147l-191 -496l-61 -201h-149l64 190z" />
    <glyph glyph-name="z" unicode="z" horiz-adv-x="500" 
d="M32 0v130l256 276h-249v99h414v-127l-256 -276h266v-102h-431z" />
    <glyph glyph-name="braceleft" unicode="{" horiz-adv-x="333" 
d="M103 449v35c0 110 5 227 245 239v-82c-111 -9 -111 -89 -111 -151v-36c0 -88 -25 -172 -158 -183c32 -4 80 -9 117 -48c37 -37 41 -87 41 -135v-37c0 -61 0 -144 111 -150v-82c-93 4 -152 22 -195 63c-32 29 -50 61 -50 176v35c0 52 0 117 -118 135v86c19 2 57 11 83 34
c27 24 35 51 35 101z" />
    <glyph glyph-name="bar" unicode="|" horiz-adv-x="278" 
d="M73 750h132v-1000h-132v1000z" />
    <glyph glyph-name="braceright" unicode="}" horiz-adv-x="333" 
d="M230 93v-35c0 -110 -4 -227 -245 -239v82c111 6 111 88 111 150v37c0 40 2 95 41 135c37 39 85 44 117 48c-35 3 -79 7 -119 53c-24 27 -39 55 -39 130v36c0 62 0 142 -111 151v82c237 -12 245 -126 245 -239v-35c0 -46 8 -76 32 -100c25 -24 71 -33 86 -35v-86
c-115 -19 -118 -84 -118 -135z" />
    <glyph glyph-name="asciitilde" unicode="~" horiz-adv-x="584" 
d="M102 173h-84c7 118 73 190 155 190c23 0 46 -7 106 -25c100 -31 118 -37 145 -37c48 0 56 47 58 60h85c-6 -78 -40 -191 -156 -191c-34 0 -101 22 -179 47c-13 4 -51 17 -71 17c-34 0 -54 -27 -59 -61z" />
    <glyph glyph-name="uni00A0" unicode="&#xa0;" horiz-adv-x="278" 
 />
    <glyph glyph-name="Agrave" unicode="&#xc0;" horiz-adv-x="706" 
d="M266 722h184l251 -722h-156l-52 156h-286l-54 -156h-148zM247 273h207l-100 308zM350 918l84 -145h-85l-139 145h140z" />
    <glyph glyph-name="Aacute" unicode="&#xc1;" horiz-adv-x="706" 
d="M511 918l-137 -145h-80l83 145h134zM266 722h184l251 -722h-156l-52 156h-286l-54 -156h-148zM247 273h207l-100 308z" />
    <glyph glyph-name="Acircumflex" unicode="&#xc2;" horiz-adv-x="706" 
d="M200 773l110 145h103l104 -145h-89l-68 85l-70 -85h-90zM266 722h184l251 -722h-156l-52 156h-286l-54 -156h-148zM247 273h207l-100 308z" />
    <glyph glyph-name="Atilde" unicode="&#xc3;" horiz-adv-x="706" 
d="M232 781h-52c11 75 58 123 118 123c21 0 47 -10 50 -11l57 -22c7 -3 17 -6 34 -6c29 0 42 21 47 46h51c-4 -36 -12 -66 -40 -93c-15 -15 -37 -29 -72 -29c-23 0 -41 7 -52 11l-43 16c-12 4 -32 10 -45 10c-17 0 -40 -6 -53 -45zM266 722h184l251 -722h-156l-52 156h-286
l-54 -156h-148zM247 273h207l-100 308z" />
    <glyph glyph-name="Adieresis" unicode="&#xc4;" horiz-adv-x="706" 
d="M394 777v118h102v-118h-102zM222 777v118h102v-118h-102zM266 722h184l251 -722h-156l-52 156h-286l-54 -156h-148zM247 273h207l-100 308z" />
    <glyph glyph-name="Amacron" unicode="&#x100;" horiz-adv-x="706" 
d="M266 723h184l251 -723h-156l-52 156h-286l-54 -156h-148zM247 273h207l-100 308zM525 812h-342v68h342v-68z" />
    <glyph glyph-name="Abreve" unicode="&#x102;" horiz-adv-x="706" 
d="M266 723h184l251 -723h-156l-52 156h-286l-54 -156h-148zM247 273h207l-100 308zM201 918h61c11 -66 56 -80 89 -80c72 0 85 53 93 80h61c-5 -79 -56 -145 -155 -145c-51 0 -95 19 -122 55c-25 32 -26 67 -27 90z" />
    <glyph glyph-name="Aring" unicode="&#xc5;" horiz-adv-x="706" 
d="M266 722h184l251 -722h-156l-52 156h-286l-54 -156h-148zM247 273h207l-100 308zM361 938c59 0 101 -46 101 -102s-45 -102 -101 -102c-55 0 -101 45 -101 102c0 56 45 102 101 102zM361 890c-29 0 -53 -23 -53 -54c0 -29 24 -53 53 -53c31 0 54 24 54 53s-23 54 -54 54z
" />
    <glyph glyph-name="Aogonek" unicode="&#x104;" horiz-adv-x="706" 
d="M628 -147v-44c-19 -11 -46 -26 -93 -26c-63 0 -96 32 -96 75c0 60 49 111 117 142h-11l-52 156h-286l-54 -156h-148l261 722h184l251 -722h-102c-41 -28 -73 -53 -73 -97c0 -61 53 -62 61 -62c20 0 30 5 41 12zM247 273h207l-100 308z" />
    <glyph glyph-name="AE" unicode="&#xc6;" horiz-adv-x="1000" 
d="M-8 0l400 721h547v-117h-335l26 -178h291v-116h-275l28 -190h274v-120h-416l-22 157h-272l-79 -157h-167zM299 271h196l-42 314z" />
    <glyph glyph-name="Cacute" unicode="&#x106;" horiz-adv-x="667" 
d="M634 487h-158c-3 25 -12 127 -117 127c-115 0 -163 -120 -163 -269c0 -43 0 -248 151 -248c65 0 127 41 130 137h163c-3 -43 -7 -110 -65 -170c-64 -66 -145 -81 -211 -81c-249 0 -330 184 -330 363c0 229 128 381 331 381c158 0 269 -96 269 -240zM508 918l-137 -145
h-80l83 145h134z" />
    <glyph glyph-name="Ccircumflex" unicode="&#x108;" horiz-adv-x="667" 
d="M634 487h-158c-3 25 -12 127 -117 127c-115 0 -163 -120 -163 -269c0 -43 0 -248 151 -248c65 0 127 41 130 137h163c-3 -43 -7 -110 -65 -170c-64 -66 -145 -81 -211 -81c-249 0 -330 184 -330 363c0 229 128 381 331 381c158 0 269 -96 269 -240zM201 773l110 145h103
l104 -145h-89l-68 85l-70 -85h-90z" />
    <glyph glyph-name="Ccaron" unicode="&#x10c;" horiz-adv-x="667" 
d="M634 487h-158c-3 25 -12 127 -117 127c-115 0 -163 -120 -163 -269c0 -43 0 -248 151 -248c65 0 127 41 130 137h163c-3 -43 -7 -110 -65 -170c-64 -66 -145 -81 -211 -81c-249 0 -330 184 -330 363c0 229 128 381 331 381c158 0 269 -96 269 -240zM427 918h93l-106 -145
h-117l-104 145h94l70 -91z" />
    <glyph glyph-name="Cdotaccent" unicode="&#x10a;" horiz-adv-x="667" 
d="M634 487h-158c-3 25 -12 127 -117 127c-115 0 -163 -120 -163 -269c0 -43 0 -248 151 -248c65 0 127 41 130 137h163c-3 -43 -7 -110 -65 -170c-64 -66 -145 -81 -211 -81c-249 0 -330 184 -330 363c0 229 128 381 331 381c158 0 269 -96 269 -240zM304 787v118h102v-118
h-102z" />
    <glyph glyph-name="Ccedilla" unicode="&#xc7;" horiz-adv-x="667" 
d="M477 234h163c-3 -50 -9 -143 -111 -208c-64 -40 -132 -43 -164 -43l-34 -45c11 2 19 4 36 4c66 0 83 -45 83 -72c0 -73 -80 -91 -126 -91s-84 16 -97 22l21 42c24 -10 49 -18 70 -18c34 0 56 16 56 38c0 14 -11 37 -45 37c-19 0 -31 -5 -41 -9l-20 21l52 74
c-93 9 -155 43 -198 91c-73 83 -88 188 -88 269c0 229 128 381 331 381c158 0 269 -96 269 -240h-158c-3 25 -12 127 -117 127c-115 0 -163 -120 -163 -269c0 -43 0 -248 151 -248c65 0 127 41 130 137z" />
    <glyph glyph-name="Dcaron" unicode="&#x10e;" horiz-adv-x="722" 
d="M65 0v721l239 -1c40 0 162 -1 249 -65c91 -67 123 -181 123 -284c0 -222 -119 -338 -256 -363c-27 -5 -57 -8 -130 -8h-225zM222 604v-485c17 -1 43 -2 61 -2c66 0 123 5 168 50c61 61 65 169 65 204c0 102 -35 196 -132 223c-32 9 -73 14 -162 10zM408 918h93l-106 -145
h-117l-104 145h94l70 -91z" />
    <glyph glyph-name="Dcroat" unicode="&#x110;" horiz-adv-x="722" 
d="M65 0v353h-65v87h65v282h239c40 0 161 -3 249 -67c91 -67 123 -181 123 -284c0 -221 -119 -339 -256 -363c-27 -5 -58 -8 -130 -8h-225zM222 353v-234c17 -1 42 -2 61 -2c67 0 123 5 168 50c61 61 65 169 65 204c0 102 -35 196 -132 223c-33 8 -73 13 -162 10v-164h145
v-87h-145z" />
    <glyph glyph-name="Eth" unicode="&#xd0;" horiz-adv-x="722" 
d="M65 0v353h-65v87h65v281l239 -1c40 0 162 -1 249 -65c91 -67 123 -181 123 -284c0 -222 -119 -338 -256 -363c-27 -5 -57 -8 -130 -8h-225zM222 353v-234c17 -1 43 -2 61 -2c66 0 123 5 168 50c61 61 65 169 65 204c0 102 -35 196 -132 223c-32 9 -73 14 -162 10v-164
h145v-87h-145z" />
    <glyph glyph-name="Egrave" unicode="&#xc8;" horiz-adv-x="603" 
d="M66 0v722h484v-117h-329v-172h308v-118h-308v-195h340v-120h-495zM287 918l84 -145h-85l-139 145h140z" />
    <glyph glyph-name="Eacute" unicode="&#xc9;" horiz-adv-x="603" 
d="M66 0v722h484v-117h-329v-172h308v-118h-308v-195h340v-120h-495zM448 918l-137 -145h-80l83 145h134z" />
    <glyph glyph-name="Ecircumflex" unicode="&#xca;" horiz-adv-x="603" 
d="M66 0v722h484v-117h-329v-172h308v-118h-308v-195h340v-120h-495zM137 773l110 145h103l104 -145h-89l-68 85l-70 -85h-90z" />
    <glyph glyph-name="Ecaron" unicode="&#x11a;" horiz-adv-x="603" 
d="M74 0v723h484v-118h-329v-172h308v-118h-308v-195h340v-120h-495zM386 918h93l-106 -145h-117l-104 145h94l70 -91z" />
    <glyph glyph-name="Edieresis" unicode="&#xcb;" horiz-adv-x="603" 
d="M66 0v722h484v-117h-329v-172h308v-118h-308v-195h340v-120h-495zM331 777v118h102v-118h-102zM159 777v118h102v-118h-102z" />
    <glyph glyph-name="Emacron" unicode="&#x112;" horiz-adv-x="603" 
d="M74 0v723h484v-118h-329v-172h308v-118h-308v-195h340v-120h-495zM482 812h-342v68h342v-68z" />
    <glyph glyph-name="Ebreve" unicode="&#x114;" horiz-adv-x="603" 
d="M74 0v723h484v-118h-329v-172h308v-118h-308v-195h340v-120h-495zM162 918h61c11 -66 56 -80 89 -80c72 0 85 53 93 80h61c-5 -79 -56 -145 -155 -145c-51 0 -95 19 -122 55c-25 32 -26 67 -27 90z" />
    <glyph glyph-name="Edotaccent" unicode="&#x116;" horiz-adv-x="603" 
d="M74 0v723h484v-118h-329v-172h308v-118h-308v-195h340v-120h-495zM271 787v118h102v-118h-102z" />
    <glyph glyph-name="Eogonek" unicode="&#x118;" horiz-adv-x="603" 
d="M66 0v722h484v-117h-329v-172h308v-118h-308v-195h340v-120h-38c-41 -28 -73 -53 -73 -97c0 -61 53 -62 61 -62c20 0 30 5 41 12v-44c-19 -11 -46 -26 -93 -26c-63 0 -96 32 -96 75c0 60 49 111 117 142h-414z" />
    <glyph glyph-name="Gcircumflex" unicode="&#x11c;" horiz-adv-x="778" 
d="M715 501h-161c-1 19 -2 45 -20 73c-30 48 -87 56 -121 56c-176 0 -211 -164 -211 -275c0 -49 7 -137 60 -194c36 -40 84 -62 170 -62c75 0 101 9 118 14v152h-140v120h295v-361c-45 -15 -119 -40 -264 -40c-165 0 -250 40 -307 96c-81 79 -96 194 -96 270
c0 256 160 393 379 393c93 0 189 -26 246 -91c48 -55 51 -112 52 -151zM241 773l110 145h103l104 -145h-89l-68 85l-70 -85h-90z" />
    <glyph glyph-name="Gbreve" unicode="&#x11e;" horiz-adv-x="778" 
d="M715 501h-161c-1 19 -2 45 -20 73c-30 48 -87 56 -121 56c-176 0 -211 -164 -211 -275c0 -49 7 -137 60 -194c36 -40 84 -62 170 -62c75 0 101 9 118 14v152h-140v120h295v-361c-45 -15 -119 -40 -264 -40c-165 0 -250 40 -307 96c-81 79 -96 194 -96 270
c0 256 160 393 379 393c93 0 189 -26 246 -91c48 -55 51 -112 52 -151zM249 918h61c11 -66 56 -80 89 -80c72 0 85 53 93 80h61c-5 -79 -56 -145 -155 -145c-51 0 -95 19 -122 55c-25 32 -26 67 -27 90z" />
    <glyph glyph-name="Gdotaccent" unicode="&#x120;" horiz-adv-x="778" 
d="M715 501h-161c-1 19 -2 45 -20 73c-30 48 -87 56 -121 56c-176 0 -211 -164 -211 -275c0 -49 7 -137 60 -194c36 -40 84 -62 170 -62c75 0 101 9 118 14v152h-140v120h295v-361c-45 -15 -119 -40 -264 -40c-165 0 -250 40 -307 96c-81 79 -96 194 -96 270
c0 256 160 393 379 393c93 0 189 -26 246 -91c48 -55 51 -112 52 -151zM362 787v118h102v-118h-102z" />
    <glyph glyph-name="Gcommaaccent" unicode="&#x122;" horiz-adv-x="778" 
d="M715 501h-161c-1 19 -2 45 -20 73c-30 48 -87 56 -121 56c-176 0 -211 -164 -211 -275c0 -49 7 -137 60 -194c36 -40 84 -62 170 -62c75 0 101 9 118 14v152h-140v120h295v-361c-45 -15 -119 -40 -264 -40c-165 0 -250 40 -307 96c-81 79 -96 194 -96 270
c0 256 160 393 379 393c93 0 189 -26 246 -91c48 -55 51 -112 52 -151zM377 -66h106l-79 -159h-67z" />
    <glyph glyph-name="Hcircumflex" unicode="&#x124;" horiz-adv-x="722" 
d="M67 0v723h155v-289h273v289h157v-723h-155v317h-275v-317h-155zM204 773l110 145h103l104 -145h-89l-68 85l-70 -85h-90z" />
    <glyph glyph-name="Hbar" unicode="&#x126;" horiz-adv-x="722" 
d="M67 0v722h155v-115h273v115h157v-722h-155v317h-275v-317h-155zM222 434h273v105h-273v-105z" />
    <glyph glyph-name="Igrave" unicode="&#xcc;" horiz-adv-x="289" 
d="M128 918l84 -145h-85l-139 145h140zM67 0v722h155v-722h-155z" />
    <glyph glyph-name="Iacute" unicode="&#xcd;" horiz-adv-x="289" 
d="M289 918l-137 -145h-80l83 145h134zM67 0v722h155v-722h-155z" />
    <glyph glyph-name="Icircumflex" unicode="&#xce;" horiz-adv-x="289" 
d="M-13 773l110 145h103l104 -145h-89l-68 85l-70 -85h-90zM67 0v722h155v-722h-155z" />
    <glyph glyph-name="Itilde" unicode="&#x128;" horiz-adv-x="289" 
d="M60 0v725h155v-725h-155zM11 781h-52c11 75 58 123 118 123c21 0 47 -10 50 -11l57 -22c7 -3 17 -6 34 -6c29 0 42 21 47 46h51c-4 -36 -12 -66 -40 -93c-15 -15 -37 -29 -72 -29c-23 0 -41 7 -52 11l-43 16c-12 4 -32 10 -45 10c-17 0 -40 -6 -53 -45z" />
    <glyph glyph-name="Idieresis" unicode="&#xcf;" horiz-adv-x="289" 
d="M179 777v118h102v-118h-102zM7 777v118h102v-118h-102zM67 0v722h155v-722h-155z" />
    <glyph glyph-name="Imacron" unicode="&#x12a;" horiz-adv-x="289" 
d="M60 0v725h155v-725h-155zM314 812h-342v68h342v-68z" />
    <glyph glyph-name="Idotaccent" unicode="&#x130;" horiz-adv-x="289" 
d="M60 0v725h155v-725h-155zM95 787v118h102v-118h-102z" />
    <glyph glyph-name="Iogonek" unicode="&#x12e;" horiz-adv-x="289" 
d="M67 0v722h155v-722h-37c-41 -28 -73 -53 -73 -97c0 -61 53 -62 61 -62c20 0 30 5 41 12v-44c-19 -11 -46 -26 -93 -26c-63 0 -96 32 -96 75c0 60 49 111 117 142h-75z" />
    <glyph glyph-name="Jcircumflex" unicode="&#x134;" horiz-adv-x="548" 
d="M9 234h152c2 -78 21 -128 85 -128c60 0 74 42 79 61c6 30 6 75 6 113v443h157v-444c0 -111 -21 -199 -112 -255c-28 -17 -70 -31 -140 -31c-78 0 -143 16 -189 88c-35 53 -37 116 -38 153zM243 773l110 145h103l104 -145h-89l-68 85l-70 -85h-90z" />
    <glyph glyph-name="Kcommaaccent" unicode="&#x136;" horiz-adv-x="667" 
d="M67 0v721h155v-311l242 313h181l-265 -324l288 -399h-193l-253 368v-368h-155zM282 -66h106l-79 -159h-67z" />
    <glyph glyph-name="Lacute" unicode="&#x139;" 
d="M69 0v722h158v-599h310v-123h-468zM317 918l-137 -145h-80l83 145h134z" />
    <glyph glyph-name="Lcaron" unicode="&#x13d;" 
d="M69 0v722h158v-599h310v-123h-468zM408 722h106l-79 -159h-67z" />
    <glyph glyph-name="Lcommaaccent" unicode="&#x13b;" 
d="M69 0v722h158v-599h310v-123h-468zM248 -66h106l-79 -159h-67z" />
    <glyph glyph-name="Lslash" unicode="&#x141;" 
d="M69 0v289l-66 -38v101l67 40l-1 330h158v-241l175 102v-104l-175 -101v-255h310v-123h-468z" />
    <glyph glyph-name="Ldot" unicode="&#x13f;" 
d="M69 0v722h158v-599h310v-123h-468zM378 374v118h102v-118h-102z" />
    <glyph glyph-name="Nacute" unicode="&#x143;" horiz-adv-x="773" 
d="M72 0v723h224l271 -569v569h144v-723h-213l-280 600v-600h-146zM547 918l-137 -145h-80l83 145h134z" />
    <glyph glyph-name="Ncaron" unicode="&#x147;" horiz-adv-x="773" 
d="M72 0v723h224l271 -569v569h144v-723h-213l-280 600v-600h-146zM459 918h93l-106 -145h-117l-104 145h94l70 -91z" />
    <glyph glyph-name="Ntilde" unicode="&#xd1;" horiz-adv-x="773" 
d="M67 0v722h224l271 -568v568h144v-722h-213l-280 600v-600h-146zM255 781h-52c11 75 58 123 118 123c21 0 47 -10 50 -11l57 -22c7 -3 17 -6 34 -6c29 0 42 21 47 46h51c-4 -36 -12 -66 -40 -93c-15 -15 -37 -29 -72 -29c-23 0 -41 7 -52 11l-43 16c-12 4 -32 10 -45 10
c-17 0 -40 -6 -53 -45z" />
    <glyph glyph-name="Ncommaaccent" unicode="&#x145;" horiz-adv-x="773" 
d="M72 0v723h224l271 -569v569h144v-723h-213l-280 600v-600h-146zM330 -66h106l-79 -159h-67z" />
    <glyph glyph-name="Ograve" unicode="&#xd2;" horiz-adv-x="778" 
d="M42 351c0 192 87 387 347 387c77 0 182 -18 254 -98c77 -88 92 -200 92 -272c0 -105 -32 -216 -91 -283c-79 -90 -198 -103 -257 -103c-96 0 -189 30 -256 99c-80 82 -89 205 -89 270zM204 356c0 -69 11 -146 54 -202c23 -31 59 -58 131 -58c61 0 106 22 135 67
c24 35 49 93 49 207c0 35 -3 85 -18 129c-31 89 -90 128 -165 128c-59 0 -104 -24 -133 -61c-41 -51 -53 -127 -53 -210zM378 918l84 -145h-85l-139 145h140z" />
    <glyph glyph-name="Oacute" unicode="&#xd3;" horiz-adv-x="778" 
d="M42 351c0 192 87 387 347 387c77 0 182 -18 254 -98c77 -88 92 -200 92 -272c0 -105 -32 -216 -91 -283c-79 -90 -198 -103 -257 -103c-96 0 -189 30 -256 99c-80 82 -89 205 -89 270zM204 356c0 -69 11 -146 54 -202c23 -31 59 -58 131 -58c61 0 106 22 135 67
c24 35 49 93 49 207c0 35 -3 85 -18 129c-31 89 -90 128 -165 128c-59 0 -104 -24 -133 -61c-41 -51 -53 -127 -53 -210zM539 918l-137 -145h-80l83 145h134z" />
    <glyph glyph-name="Ocircumflex" unicode="&#xd4;" horiz-adv-x="778" 
d="M42 351c0 192 87 387 347 387c77 0 182 -18 254 -98c77 -88 92 -200 92 -272c0 -105 -32 -216 -91 -283c-79 -90 -198 -103 -257 -103c-96 0 -189 30 -256 99c-80 82 -89 205 -89 270zM204 356c0 -69 11 -146 54 -202c23 -31 59 -58 131 -58c61 0 106 22 135 67
c24 35 49 93 49 207c0 35 -3 85 -18 129c-31 89 -90 128 -165 128c-59 0 -104 -24 -133 -61c-41 -51 -53 -127 -53 -210zM228 773l110 145h103l104 -145h-89l-68 85l-70 -85h-90z" />
    <glyph glyph-name="Otilde" unicode="&#xd5;" horiz-adv-x="778" 
d="M42 351c0 192 87 387 347 387c77 0 182 -18 254 -98c77 -88 92 -200 92 -272c0 -105 -32 -216 -91 -283c-79 -90 -198 -103 -257 -103c-96 0 -189 30 -256 99c-80 82 -89 205 -89 270zM204 356c0 -69 11 -146 54 -202c23 -31 59 -58 131 -58c61 0 106 22 135 67
c24 35 49 93 49 207c0 35 -3 85 -18 129c-31 89 -90 128 -165 128c-59 0 -104 -24 -133 -61c-41 -51 -53 -127 -53 -210zM260 781h-52c11 75 58 123 118 123c21 0 47 -10 50 -11l57 -22c7 -3 17 -6 34 -6c29 0 42 21 47 46h51c-4 -36 -12 -66 -40 -93
c-15 -15 -37 -29 -72 -29c-23 0 -41 7 -52 11l-43 16c-12 4 -32 10 -45 10c-17 0 -40 -6 -53 -45z" />
    <glyph glyph-name="Odieresis" unicode="&#xd6;" horiz-adv-x="778" 
d="M42 351c0 192 87 387 347 387c77 0 182 -18 254 -98c77 -88 92 -200 92 -272c0 -105 -32 -216 -91 -283c-79 -90 -198 -103 -257 -103c-96 0 -189 30 -256 99c-80 82 -89 205 -89 270zM204 356c0 -69 11 -146 54 -202c23 -31 59 -58 131 -58c61 0 106 22 135 67
c24 35 49 93 49 207c0 35 -3 85 -18 129c-31 89 -90 128 -165 128c-59 0 -104 -24 -133 -61c-41 -51 -53 -127 -53 -210zM422 777v118h102v-118h-102zM250 777v118h102v-118h-102z" />
    <glyph glyph-name="Omacron" unicode="&#x14c;" horiz-adv-x="778" 
d="M42 351c0 192 87 387 347 387c77 0 183 -18 254 -98c77 -88 92 -201 92 -272c0 -105 -32 -217 -91 -283c-80 -90 -197 -103 -257 -103c-95 0 -190 30 -256 99c-79 84 -89 204 -89 270zM204 356c0 -69 11 -146 54 -202c22 -30 59 -58 131 -58c63 0 106 22 135 67
c24 36 49 92 49 207c0 35 -3 85 -18 129c-30 89 -91 128 -165 128c-58 0 -104 -24 -133 -61c-41 -50 -53 -128 -53 -210zM560 812h-342v68h342v-68z" />
    <glyph glyph-name="Obreve" unicode="&#x14e;" horiz-adv-x="778" 
d="M42 351c0 192 87 387 347 387c77 0 183 -18 254 -98c77 -88 92 -201 92 -272c0 -105 -32 -217 -91 -283c-80 -90 -197 -103 -257 -103c-95 0 -190 30 -256 99c-79 84 -89 204 -89 270zM204 356c0 -69 11 -146 54 -202c22 -30 59 -58 131 -58c63 0 106 22 135 67
c24 36 49 92 49 207c0 35 -3 85 -18 129c-30 89 -91 128 -165 128c-58 0 -104 -24 -133 -61c-41 -50 -53 -128 -53 -210zM235 918h61c11 -66 56 -80 89 -80c72 0 85 53 93 80h61c-5 -79 -56 -145 -155 -145c-51 0 -95 19 -122 55c-25 32 -26 67 -27 90z" />
    <glyph glyph-name="Ohungarumlaut" unicode="&#x150;" horiz-adv-x="778" 
d="M42 351c0 192 87 387 347 387c77 0 183 -18 254 -98c77 -88 92 -201 92 -272c0 -105 -32 -217 -91 -283c-80 -90 -197 -103 -257 -103c-95 0 -190 30 -256 99c-79 84 -89 204 -89 270zM204 356c0 -69 11 -146 54 -202c22 -30 59 -58 131 -58c63 0 106 22 135 67
c24 36 49 92 49 207c0 35 -3 85 -18 129c-30 89 -91 128 -165 128c-58 0 -104 -24 -133 -61c-41 -50 -53 -128 -53 -210zM440 918l-138 -145h-80l84 145h134zM625 918l-138 -145h-80l84 145h134z" />
    <glyph glyph-name="Oslash" unicode="&#xd8;" horiz-adv-x="778" 
d="M616 664l94 101l47 -47l-95 -104c53 -71 71 -160 71 -249c0 -260 -151 -383 -345 -383c-86 0 -173 23 -238 79l-100 -108l-48 47l103 111c-49 69 -65 155 -65 240c0 157 62 387 347 387c83 0 166 -20 229 -74zM218 235l305 329c-46 62 -113 66 -136 66
c-62 0 -122 -31 -154 -96c-25 -53 -30 -137 -30 -178c0 -70 10 -105 15 -121zM555 499l-307 -333c13 -20 47 -71 140 -71c141 0 183 126 183 278c0 42 -4 86 -16 126z" />
    <glyph glyph-name="OE" unicode="&#x152;" horiz-adv-x="1000" 
d="M951 722v-116h-295v-180h286v-116h-287v-190h308v-120h-491c-133 0 -256 0 -348 92c-82 81 -92 206 -92 261c0 162 73 309 215 348c77 21 115 21 225 21h479zM500 111v503c-111 0 -154 -3 -202 -26c-77 -36 -106 -133 -106 -239c0 -244 164 -242 308 -238z" />
    <glyph glyph-name="Racute" unicode="&#x154;" horiz-adv-x="667" 
d="M55 0v723h277c80 1 161 1 219 -49c45 -39 63 -92 63 -139c0 -135 -116 -167 -151 -177c109 -10 117 -72 130 -166c11 -85 17 -120 22 -140c8 -32 14 -40 22 -52h-171c-7 40 -29 223 -39 251c-14 41 -52 41 -78 41h-136v-292h-158zM208 609v-202h125c18 0 54 0 79 20
c11 8 40 33 40 84c0 49 -24 72 -38 81c-24 17 -53 17 -102 17h-104zM467 918l-137 -145h-80l83 145h134z" />
    <glyph glyph-name="Rcaron" unicode="&#x158;" horiz-adv-x="667" 
d="M55 0v723h277c80 1 161 1 219 -49c45 -39 63 -92 63 -139c0 -135 -116 -167 -151 -177c109 -10 117 -72 130 -166c11 -85 17 -120 22 -140c8 -32 14 -40 22 -52h-171c-7 40 -29 223 -39 251c-14 41 -52 41 -78 41h-136v-292h-158zM208 609v-202h125c18 0 54 0 79 20
c11 8 40 33 40 84c0 49 -24 72 -38 81c-24 17 -53 17 -102 17h-104zM403 918h93l-106 -145h-117l-104 145h94l70 -91z" />
    <glyph glyph-name="Rcommaaccent" unicode="&#x156;" horiz-adv-x="667" 
d="M55 0v723h277c80 1 161 1 219 -49c45 -39 63 -92 63 -139c0 -135 -116 -167 -151 -177c109 -10 117 -72 130 -166c11 -85 17 -120 22 -140c8 -32 14 -40 22 -52h-171c-7 40 -29 223 -39 251c-14 41 -52 41 -78 41h-136v-292h-158zM208 609v-202h125c18 0 54 0 79 20
c11 8 40 33 40 84c0 49 -24 72 -38 81c-24 17 -53 17 -102 17h-104zM293 -66h106l-79 -159h-67z" />
    <glyph glyph-name="Sacute" unicode="&#x15a;" horiz-adv-x="667" 
d="M35 231h158c0 -34 -2 -137 131 -137c84 0 137 40 137 101c0 64 -45 75 -137 97c-172 43 -266 94 -266 219c0 119 85 224 286 224c75 0 164 -17 218 -85c41 -52 41 -110 41 -134h-149c-2 25 -10 110 -117 110c-72 0 -119 -39 -119 -98c0 -67 53 -79 157 -105
c125 -30 248 -64 248 -205c0 -130 -108 -235 -308 -235c-277 0 -279 178 -280 248zM497 918l-137 -145h-80l83 145h134z" />
    <glyph glyph-name="Scircumflex" unicode="&#x15c;" horiz-adv-x="667" 
d="M35 231h158c0 -34 -2 -137 131 -137c84 0 137 40 137 101c0 64 -45 75 -137 97c-172 43 -266 94 -266 219c0 119 85 224 286 224c75 0 164 -17 218 -85c41 -52 41 -110 41 -134h-149c-2 25 -10 110 -117 110c-72 0 -119 -39 -119 -98c0 -67 53 -79 157 -105
c125 -30 248 -64 248 -205c0 -130 -108 -235 -308 -235c-277 0 -279 178 -280 248zM168 773l110 145h103l104 -145h-89l-68 85l-70 -85h-90z" />
    <glyph glyph-name="Scaron" unicode="&#x160;" horiz-adv-x="667" 
d="M35 231h158c0 -34 -2 -137 131 -137c84 0 137 40 137 101c0 64 -45 75 -137 97c-172 43 -266 94 -266 219c0 119 85 224 286 224c75 0 164 -17 218 -85c41 -52 41 -110 41 -134h-149c-2 25 -10 110 -117 110c-72 0 -119 -39 -119 -98c0 -67 53 -79 157 -105
c125 -30 248 -64 248 -205c0 -130 -108 -235 -308 -235c-277 0 -279 178 -280 248zM406 918h93l-106 -145h-117l-104 145h94l70 -91z" />
    <glyph glyph-name="Scedilla" unicode="&#x15e;" horiz-adv-x="667" 
d="M215 -195l21 42c23 -11 49 -18 70 -18c35 0 55 15 55 38c0 15 -9 37 -44 37c-19 0 -30 -5 -41 -9l-20 21l48 68c-265 4 -269 178 -269 247h158c0 -35 -1 -137 131 -137c84 0 137 40 137 101c0 63 -45 75 -137 97c-172 42 -266 94 -266 219c0 119 85 224 286 224
c75 0 164 -18 218 -85c40 -54 41 -110 41 -134h-149c-3 25 -9 110 -117 110c-72 0 -119 -38 -119 -98c0 -68 53 -78 157 -105c125 -29 248 -64 248 -205c0 -122 -97 -223 -273 -234l-31 -42c11 3 19 4 35 4c66 0 84 -45 84 -72c0 -73 -80 -91 -126 -91c-47 0 -84 15 -97 22z
" />
    <glyph glyph-name="Scommaaccent" unicode="&#x218;" horiz-adv-x="667" 
d="M35 231h158c0 -34 -2 -137 131 -137c84 0 137 40 137 101c0 64 -45 75 -137 97c-172 43 -266 94 -266 219c0 119 85 224 286 224c75 0 164 -17 218 -85c41 -52 41 -110 41 -134h-149c-2 25 -10 110 -117 110c-72 0 -119 -39 -119 -98c0 -67 53 -79 157 -105
c125 -30 248 -64 248 -205c0 -130 -108 -235 -308 -235c-277 0 -279 178 -280 248zM281 -66h106l-79 -159h-67z" />
    <glyph glyph-name="Tcaron" unicode="&#x164;" horiz-adv-x="611" 
d="M229 0v603h-215v120h586v-120h-215v-603h-156zM378 918h93l-106 -145h-117l-104 145h94l70 -91z" />
    <glyph glyph-name="Tcommaaccent" unicode="&#x162;" horiz-adv-x="611" 
d="M229 0v603h-215v120h586v-120h-215v-603h-156zM273 -66h106l-79 -159h-67z" />
    <glyph glyph-name="uni021A" unicode="&#x21a;" horiz-adv-x="611" 
d="M229 0v603h-215v120h586v-120h-215v-603h-156zM273 -66h106l-79 -159h-67z" />
    <glyph glyph-name="Tbar" unicode="&#x166;" horiz-adv-x="611" 
d="M497 389h-112v-389h-156v389h-116v64h116v150h-215v120h586v-120h-215v-150h112v-64z" />
    <glyph glyph-name="Thorn" unicode="&#xde;" horiz-adv-x="611" 
d="M65 0v721h153v-110h70c96 0 180 -6 239 -66c36 -36 56 -83 56 -151c0 -75 -30 -148 -92 -190c-49 -34 -128 -34 -171 -34h-98v-170h-157zM218 493v-208h62c23 0 69 0 94 15c37 21 49 64 49 96c0 97 -85 97 -127 97h-78z" />
    <glyph glyph-name="Ugrave" unicode="&#xd9;" horiz-adv-x="746" 
d="M60 721h155v-440c0 -80 6 -178 157 -178c25 0 100 1 140 63c15 20 23 52 23 123v432h151v-451c0 -216 -171 -284 -317 -284c-71 0 -205 15 -272 125c-35 56 -37 110 -37 178v432zM366 918l84 -145h-85l-139 145h140z" />
    <glyph glyph-name="Uacute" unicode="&#xda;" horiz-adv-x="746" 
d="M60 721h155v-440c0 -80 6 -178 157 -178c25 0 100 1 140 63c15 20 23 52 23 123v432h151v-451c0 -216 -171 -284 -317 -284c-71 0 -205 15 -272 125c-35 56 -37 110 -37 178v432zM527 918l-137 -145h-80l83 145h134z" />
    <glyph glyph-name="Ucircumflex" unicode="&#xdb;" horiz-adv-x="746" 
d="M60 721h155v-440c0 -80 6 -178 157 -178c25 0 100 1 140 63c15 20 23 52 23 123v432h151v-451c0 -216 -171 -284 -317 -284c-71 0 -205 15 -272 125c-35 56 -37 110 -37 178v432zM216 773l110 145h103l104 -145h-89l-68 85l-70 -85h-90z" />
    <glyph glyph-name="Utilde" unicode="&#x168;" horiz-adv-x="746" 
d="M72 721h155v-440c0 -79 6 -178 157 -178c25 0 100 1 140 63c15 22 23 50 23 123v432h151v-451c0 -215 -171 -284 -317 -284c-72 0 -204 16 -272 125c-35 55 -37 111 -37 178v432zM271 781h-52c11 75 58 123 118 123c21 0 47 -10 50 -11l57 -22c7 -3 17 -6 34 -6
c29 0 42 21 47 46h51c-4 -36 -12 -66 -40 -93c-15 -15 -37 -29 -72 -29c-23 0 -41 7 -52 11l-43 16c-12 4 -32 10 -45 10c-17 0 -40 -6 -53 -45z" />
    <glyph glyph-name="Udieresis" unicode="&#xdc;" horiz-adv-x="746" 
d="M60 721h155v-440c0 -80 6 -178 157 -178c25 0 100 1 140 63c15 20 23 52 23 123v432h151v-451c0 -216 -171 -284 -317 -284c-71 0 -205 15 -272 125c-35 56 -37 110 -37 178v432zM410 777v118h102v-118h-102zM238 777v118h102v-118h-102z" />
    <glyph glyph-name="Umacron" unicode="&#x16a;" horiz-adv-x="746" 
d="M72 721h155v-440c0 -79 6 -178 157 -178c25 0 100 1 140 63c15 22 23 50 23 123v432h151v-451c0 -215 -171 -284 -317 -284c-72 0 -204 16 -272 125c-35 55 -37 111 -37 178v432zM553 812h-342v68h342v-68z" />
    <glyph glyph-name="Ubreve" unicode="&#x16c;" horiz-adv-x="746" 
d="M72 721h155v-440c0 -79 6 -178 157 -178c25 0 100 1 140 63c15 22 23 50 23 123v432h151v-451c0 -215 -171 -284 -317 -284c-72 0 -204 16 -272 125c-35 55 -37 111 -37 178v432zM232 918h61c11 -66 56 -80 89 -80c72 0 85 53 93 80h61c-5 -79 -56 -145 -155 -145
c-51 0 -95 19 -122 55c-25 32 -26 67 -27 90z" />
    <glyph glyph-name="Uring" unicode="&#x16e;" horiz-adv-x="746" 
d="M72 721h155v-440c0 -79 6 -178 157 -178c25 0 100 1 140 63c15 22 23 50 23 123v432h151v-451c0 -215 -171 -284 -317 -284c-72 0 -204 16 -272 125c-35 55 -37 111 -37 178v432zM381 948c59 0 101 -46 101 -102s-45 -102 -101 -102c-55 0 -101 45 -101 102
c0 56 45 102 101 102zM381 900c-29 0 -53 -23 -53 -54c0 -29 24 -53 53 -53c31 0 54 24 54 53s-23 54 -54 54z" />
    <glyph glyph-name="Uhungarumlaut" unicode="&#x170;" horiz-adv-x="746" 
d="M72 721h155v-440c0 -79 6 -178 157 -178c25 0 100 1 140 63c15 22 23 50 23 123v432h151v-451c0 -215 -171 -284 -317 -284c-72 0 -204 16 -272 125c-35 55 -37 111 -37 178v432zM457 918l-138 -145h-80l84 145h134zM642 918l-138 -145h-80l84 145h134z" />
    <glyph glyph-name="Uogonek" unicode="&#x172;" horiz-adv-x="746" 
d="M480 -147v-44c-19 -11 -46 -26 -93 -26c-63 0 -96 32 -96 75c0 51 37 97 90 128h-12c-71 0 -205 15 -272 125c-35 56 -37 110 -37 178v432h155v-440c0 -80 6 -178 157 -178c25 0 100 1 140 63c15 20 23 52 23 123v432h151v-451c0 -180 -122 -259 -247 -278
c-35 -25 -61 -50 -61 -89c0 -61 53 -62 61 -62c20 0 30 5 41 12z" />
    <glyph glyph-name="Wcircumflex" unicode="&#x174;" horiz-adv-x="1000" 
d="M15 720h160l112 -541l141 541h175l127 -541l117 541h148l-184 -722h-172l-131 552l-141 -552h-176zM357 773l110 145h103l104 -145h-89l-68 85l-70 -85h-90z" />
    <glyph glyph-name="Yacute" unicode="&#xdd;" horiz-adv-x="667" 
d="M16 720h181l149 -329l152 329h159l-244 -457v-263h-153v265zM516 918l-137 -145h-80l83 145h134z" />
    <glyph glyph-name="Ycircumflex" unicode="&#x176;" horiz-adv-x="667" 
d="M16 720h181l149 -329l152 329h159l-244 -457v-263h-153v265zM193 773l110 145h103l104 -145h-89l-68 85l-70 -85h-90z" />
    <glyph glyph-name="Ydieresis" unicode="&#x178;" horiz-adv-x="667" 
d="M16 720h181l149 -329l152 329h159l-244 -457v-263h-153v265zM367 777v118h102v-118h-102zM195 777v118h102v-118h-102z" />
    <glyph glyph-name="Zacute" unicode="&#x179;" horiz-adv-x="611" 
d="M27 0v132l378 473l-355 -3v118h523v-137l-377 -470l385 6v-119h-554zM482 918l-137 -145h-80l83 145h134z" />
    <glyph glyph-name="Zcaron" unicode="&#x17d;" horiz-adv-x="611" 
d="M27 0v132l378 473l-355 -3v118h523v-137l-377 -470l385 6v-119h-554zM378 918h93l-106 -145h-117l-104 145h94l70 -91z" />
    <glyph glyph-name="Zdotaccent" unicode="&#x17b;" horiz-adv-x="611" 
d="M27 0v132l378 473l-355 -3v118h523v-137l-377 -470l385 6v-119h-554zM260 787v118h102v-118h-102z" />
    <glyph glyph-name="agrave" unicode="&#xe0;" 
d="M502 0h-134c-5 31 -5 54 -5 69c-56 -80 -123 -81 -151 -81c-73 0 -106 21 -126 40c-31 31 -44 71 -44 111s14 114 107 157c62 27 151 28 200 28c0 33 0 48 -7 67c-13 36 -52 42 -66 42c-21 0 -43 -9 -56 -28c-11 -17 -11 -33 -11 -45h-145c0 26 5 82 57 119
c47 33 105 41 153 41c42 0 130 -7 180 -65c35 -40 35 -101 35 -124l1 -203c0 -43 3 -85 12 -128zM349 238c-95 8 -163 -22 -163 -82c0 -34 24 -72 72 -72c27 0 48 13 63 29c27 32 28 70 28 125zM267 730l84 -145h-85l-139 145h140z" />
    <glyph glyph-name="aacute" unicode="&#xe1;" 
d="M502 0h-134c-5 31 -5 54 -5 69c-56 -80 -123 -81 -151 -81c-73 0 -106 21 -126 40c-31 31 -44 71 -44 111s14 114 107 157c62 27 151 28 200 28c0 33 0 48 -7 67c-13 36 -52 42 -66 42c-21 0 -43 -9 -56 -28c-11 -17 -11 -33 -11 -45h-145c0 26 5 82 57 119
c47 33 105 41 153 41c42 0 130 -7 180 -65c35 -40 35 -101 35 -124l1 -203c0 -43 3 -85 12 -128zM349 238c-95 8 -163 -22 -163 -82c0 -34 24 -72 72 -72c27 0 48 13 63 29c27 32 28 70 28 125zM428 730l-137 -145h-80l83 145h134z" />
    <glyph glyph-name="acircumflex" unicode="&#xe2;" 
d="M502 0h-134c-5 31 -5 54 -5 69c-56 -80 -123 -81 -151 -81c-73 0 -106 21 -126 40c-31 31 -44 71 -44 111s14 114 107 157c62 27 151 28 200 28c0 33 0 48 -7 67c-13 36 -52 42 -66 42c-21 0 -43 -9 -56 -28c-11 -17 -11 -33 -11 -45h-145c0 26 5 82 57 119
c47 33 105 41 153 41c42 0 130 -7 180 -65c35 -40 35 -101 35 -124l1 -203c0 -43 3 -85 12 -128zM349 238c-95 8 -163 -22 -163 -82c0 -34 24 -72 72 -72c27 0 48 13 63 29c27 32 28 70 28 125zM117 585l110 145h103l104 -145h-89l-68 85l-70 -85h-90z" />
    <glyph glyph-name="atilde" unicode="&#xe3;" 
d="M502 0h-134c-5 31 -5 54 -5 69c-56 -80 -123 -81 -151 -81c-73 0 -106 21 -126 40c-31 31 -44 71 -44 111s14 114 107 157c62 27 151 28 200 28c0 33 0 48 -7 67c-13 36 -52 42 -66 42c-21 0 -43 -9 -56 -28c-11 -17 -11 -33 -11 -45h-145c0 26 5 82 57 119
c47 33 105 41 153 41c42 0 130 -7 180 -65c35 -40 35 -101 35 -124l1 -203c0 -43 3 -85 12 -128zM349 238c-95 8 -163 -22 -163 -82c0 -34 24 -72 72 -72c27 0 48 13 63 29c27 32 28 70 28 125zM149 593h-52c11 75 58 123 118 123c21 0 47 -10 50 -11l57 -22
c7 -3 17 -6 34 -6c29 0 42 21 47 46h51c-4 -36 -12 -66 -40 -93c-15 -15 -37 -29 -72 -29c-23 0 -41 7 -52 11l-43 16c-12 4 -32 10 -45 10c-17 0 -40 -6 -53 -45z" />
    <glyph glyph-name="adieresis" unicode="&#xe4;" 
d="M502 0h-134c-5 31 -5 54 -5 69c-56 -80 -123 -81 -151 -81c-73 0 -106 21 -126 40c-31 31 -44 71 -44 111s14 114 107 157c62 27 151 28 200 28c0 33 0 48 -7 67c-13 36 -52 42 -66 42c-21 0 -43 -9 -56 -28c-11 -17 -11 -33 -11 -45h-145c0 26 5 82 57 119
c47 33 105 41 153 41c42 0 130 -7 180 -65c35 -40 35 -101 35 -124l1 -203c0 -43 3 -85 12 -128zM349 238c-95 8 -163 -22 -163 -82c0 -34 24 -72 72 -72c27 0 48 13 63 29c27 32 28 70 28 125zM311 599v118h102v-118h-102zM139 599v118h102v-118h-102z" />
    <glyph glyph-name="amacron" unicode="&#x101;" 
d="M502 0h-134c-5 31 -5 54 -5 69c-56 -81 -123 -81 -151 -81c-73 0 -106 21 -126 40c-30 30 -44 71 -44 111s14 114 107 157c62 28 151 28 200 28c0 33 -1 49 -7 67c-13 37 -52 42 -66 42c-21 0 -43 -9 -56 -28c-11 -17 -11 -33 -11 -45h-145c1 27 4 81 57 119
c46 33 105 41 153 41c42 0 130 -7 180 -65c34 -41 35 -101 35 -124l1 -203c0 -43 3 -86 12 -128zM349 238c-95 8 -163 -22 -163 -82c0 -34 23 -72 72 -72c27 0 49 13 63 29c26 32 28 71 28 125zM459 624h-342v68h342v-68z" />
    <glyph glyph-name="abreve" unicode="&#x103;" 
d="M502 0h-134c-5 31 -5 54 -5 69c-56 -81 -123 -81 -151 -81c-73 0 -106 21 -126 40c-30 30 -44 71 -44 111s14 114 107 157c62 28 151 28 200 28c0 33 -1 49 -7 67c-13 37 -52 42 -66 42c-21 0 -43 -9 -56 -28c-11 -17 -11 -33 -11 -45h-145c1 27 4 81 57 119
c46 33 105 41 153 41c42 0 130 -7 180 -65c34 -41 35 -101 35 -124l1 -203c0 -43 3 -86 12 -128zM349 238c-95 8 -163 -22 -163 -82c0 -34 23 -72 72 -72c27 0 49 13 63 29c26 32 28 71 28 125zM135 730h61c11 -66 56 -80 89 -80c72 0 85 53 93 80h61
c-5 -79 -56 -145 -155 -145c-51 0 -95 19 -122 55c-25 32 -26 67 -27 90z" />
    <glyph glyph-name="aring" unicode="&#xe5;" 
d="M502 0h-134c-5 31 -5 54 -5 69c-56 -80 -123 -81 -151 -81c-73 0 -106 21 -126 40c-31 31 -44 71 -44 111s14 114 107 157c62 27 151 28 200 28c0 33 0 48 -7 67c-13 36 -52 42 -66 42c-21 0 -43 -9 -56 -28c-11 -17 -11 -33 -11 -45h-145c0 26 5 82 57 119
c47 33 105 41 153 41c42 0 130 -7 180 -65c35 -40 35 -101 35 -124l1 -203c0 -43 3 -85 12 -128zM349 238c-95 8 -163 -22 -163 -82c0 -34 24 -72 72 -72c27 0 48 13 63 29c27 32 28 70 28 125zM278 760c59 0 101 -46 101 -102s-45 -102 -101 -102c-55 0 -101 45 -101 102
c0 56 45 102 101 102zM278 712c-29 0 -53 -23 -53 -54c0 -29 24 -53 53 -53c31 0 54 24 54 53s-23 54 -54 54z" />
    <glyph glyph-name="aogonek" unicode="&#x105;" 
d="M477 -147v-44c-19 -11 -46 -26 -93 -26c-63 0 -96 32 -96 75c0 60 49 111 117 142h-37c-5 31 -5 54 -5 69c-56 -80 -123 -81 -151 -81c-73 0 -106 21 -126 40c-31 31 -44 71 -44 111s14 114 107 157c62 27 151 28 200 28c0 33 0 48 -7 67c-13 36 -52 42 -66 42
c-21 0 -43 -9 -56 -28c-11 -17 -11 -33 -11 -45h-145c0 26 5 82 57 119c47 33 105 41 153 41c42 0 130 -7 180 -65c35 -40 35 -101 35 -124l1 -203c0 -43 3 -85 12 -128h-54c-41 -28 -73 -53 -73 -97c0 -61 53 -62 61 -62c20 0 30 5 41 12zM349 238c-95 8 -163 -22 -163 -82
c0 -34 24 -72 72 -72c27 0 48 13 63 29c27 32 28 70 28 125z" />
    <glyph glyph-name="ae" unicode="&#xe6;" horiz-adv-x="889" 
d="M699 156h139c-3 -24 -9 -64 -43 -105c-40 -48 -105 -66 -168 -66c-132 0 -178 70 -193 93c-36 -43 -87 -97 -202 -97c-132 0 -194 68 -194 158c0 30 7 106 88 145c65 32 163 32 244 33c3 65 -16 117 -84 117c-35 0 -75 -16 -78 -71h-143c10 118 97 157 203 157
c116 0 161 -56 180 -79c21 25 66 79 178 79c82 0 148 -36 187 -98c40 -64 38 -151 38 -191h-338c0 -19 0 -65 17 -99c18 -38 56 -52 86 -52c65 0 77 51 83 76zM512 317h186c0 26 -1 115 -87 115c-88 0 -97 -90 -99 -115zM369 231c-14 2 -28 2 -44 2c-28 0 -144 0 -144 -87
c0 -45 39 -70 78 -70c28 0 70 13 90 53c15 30 18 72 20 102z" />
    <glyph glyph-name="cacute" unicode="&#x107;" horiz-adv-x="500" 
d="M477 326h-145c-2 18 -8 93 -65 93c-70 0 -78 -106 -78 -161c0 -28 3 -118 37 -155c14 -15 29 -17 40 -17c16 0 62 7 68 97h146c-2 -39 -7 -100 -65 -149c-36 -31 -81 -47 -144 -47c-67 0 -126 15 -172 67c-44 51 -64 118 -64 199c0 230 169 262 236 262
c94 0 205 -52 206 -189zM437 730l-137 -145h-80l83 145h134z" />
    <glyph glyph-name="ccircumflex" unicode="&#x109;" horiz-adv-x="500" 
d="M477 326h-145c-2 18 -8 93 -65 93c-70 0 -78 -106 -78 -161c0 -28 3 -118 37 -155c14 -15 29 -17 40 -17c16 0 62 7 68 97h146c-2 -39 -7 -100 -65 -149c-36 -31 -81 -47 -144 -47c-67 0 -126 15 -172 67c-44 51 -64 118 -64 199c0 230 169 262 236 262
c94 0 205 -52 206 -189zM110 585l110 145h103l104 -145h-89l-68 85l-70 -85h-90z" />
    <glyph glyph-name="ccaron" unicode="&#x10d;" horiz-adv-x="500" 
d="M477 326h-145c-2 18 -8 93 -65 93c-70 0 -78 -106 -78 -161c0 -28 3 -118 37 -155c14 -15 29 -17 40 -17c16 0 62 7 68 97h146c-2 -39 -7 -100 -65 -149c-36 -31 -81 -47 -144 -47c-67 0 -126 15 -172 67c-44 51 -64 118 -64 199c0 230 169 262 236 262
c94 0 205 -52 206 -189zM343 730h93l-106 -145h-117l-104 145h94l70 -91z" />
    <glyph glyph-name="cdotaccent" unicode="&#x10b;" horiz-adv-x="500" 
d="M477 326h-145c-2 18 -8 93 -65 93c-70 0 -78 -106 -78 -161c0 -28 3 -118 37 -155c14 -15 29 -17 40 -17c16 0 62 7 68 97h146c-2 -39 -7 -100 -65 -149c-36 -31 -81 -47 -144 -47c-67 0 -126 15 -172 67c-44 51 -64 118 -64 199c0 230 169 262 236 262
c94 0 205 -52 206 -189zM218 599v118h102v-118h-102z" />
    <glyph glyph-name="ccedilla" unicode="&#xe7;" horiz-adv-x="500" 
d="M334 183h146c-2 -40 -7 -100 -65 -149c-46 -39 -92 -45 -131 -47l-36 -49c11 2 19 4 36 4c66 0 83 -45 83 -72c0 -73 -80 -91 -126 -91s-84 16 -97 22l21 42c24 -10 49 -18 70 -18c34 0 56 16 56 38c0 14 -11 37 -45 37c-19 0 -31 -5 -40 -9l-21 21l53 76
c-26 3 -89 9 -139 66c-43 49 -64 115 -64 199c0 230 169 262 236 262c94 0 205 -52 206 -189h-145c-2 18 -8 93 -65 93c-70 0 -78 -106 -78 -161c0 -28 3 -118 37 -155c14 -15 29 -17 40 -17c16 0 62 7 68 97z" />
    <glyph glyph-name="dcaron" unicode="&#x10f;" horiz-adv-x="611" 
d="M399 443v279h149v-640c0 -30 2 -63 4 -82h-150l-4 73c-10 -18 -20 -37 -51 -57c-37 -24 -76 -26 -98 -26c-135 0 -215 93 -215 251c0 167 91 271 223 271c91 0 129 -51 142 -69zM184 245c0 -84 28 -159 102 -159c43 0 78 26 94 57c22 42 24 94 24 119
c0 99 -43 153 -110 153c-99 0 -110 -119 -110 -170zM619 722h106l-79 -159h-67z" />
    <glyph glyph-name="dcroat" unicode="&#x111;" horiz-adv-x="611" 
d="M603 568h-55v-486c0 -31 1 -63 4 -82h-150l-4 73c-11 -19 -20 -37 -51 -57c-37 -24 -75 -26 -98 -26c-136 0 -215 92 -215 251c0 167 91 271 223 271c90 0 129 -51 142 -69v125h-141v53h141v101h149v-101h55v-53zM184 245c0 -84 27 -159 102 -159c43 0 78 26 94 57
c23 43 24 94 24 119c0 100 -42 153 -110 153c-99 0 -110 -119 -110 -170z" />
    <glyph glyph-name="eth" unicode="&#xf0;" horiz-adv-x="611" 
d="M124 564l86 59c-26 13 -50 25 -98 44l79 90c78 -35 106 -52 125 -63l79 54l44 -34l-76 -51c72 -53 201 -159 201 -385c0 -166 -74 -292 -260 -292c-53 0 -118 8 -168 46c-63 46 -88 125 -88 204c0 187 136 249 232 249c72 0 113 -31 132 -46c-29 48 -64 96 -152 154
l-92 -63zM309 81c94 0 108 95 108 165c0 51 -9 154 -108 154c-111 0 -111 -134 -111 -164c0 -78 22 -155 111 -155z" />
    <glyph glyph-name="egrave" unicode="&#xe8;" 
d="M523 215h-339c0 -33 0 -135 103 -135c37 0 73 14 88 70h135c-3 -25 -6 -66 -48 -110c-37 -39 -102 -59 -177 -59c-43 0 -126 8 -178 63c-47 48 -65 116 -65 197c0 83 20 180 105 239c39 27 86 42 142 42c72 0 159 -29 204 -122c34 -68 33 -143 30 -185zM189 308h183
c0 23 -2 113 -88 113c-64 0 -92 -54 -95 -113zM267 730l84 -145h-85l-139 145h140z" />
    <glyph glyph-name="eacute" unicode="&#xe9;" 
d="M523 215h-339c0 -33 0 -135 103 -135c37 0 73 14 88 70h135c-3 -25 -6 -66 -48 -110c-37 -39 -102 -59 -177 -59c-43 0 -126 8 -178 63c-47 48 -65 116 -65 197c0 83 20 180 105 239c39 27 86 42 142 42c72 0 159 -29 204 -122c34 -68 33 -143 30 -185zM189 308h183
c0 23 -2 113 -88 113c-64 0 -92 -54 -95 -113zM428 730l-137 -145h-80l83 145h134z" />
    <glyph glyph-name="ecircumflex" unicode="&#xea;" 
d="M523 215h-339c0 -33 0 -135 103 -135c37 0 73 14 88 70h135c-3 -25 -6 -66 -48 -110c-37 -39 -102 -59 -177 -59c-43 0 -126 8 -178 63c-47 48 -65 116 -65 197c0 83 20 180 105 239c39 27 86 42 142 42c72 0 159 -29 204 -122c34 -68 33 -143 30 -185zM189 308h183
c0 23 -2 113 -88 113c-64 0 -92 -54 -95 -113zM117 585l110 145h103l104 -145h-89l-68 85l-70 -85h-90z" />
    <glyph glyph-name="ecaron" unicode="&#x11b;" 
d="M523 215h-339c0 -33 0 -135 103 -135c37 0 74 14 88 70h135c-2 -24 -7 -67 -48 -110c-37 -39 -103 -59 -177 -59c-43 0 -125 8 -178 63c-46 48 -65 116 -65 197c0 82 20 180 105 239c39 26 87 42 142 42c72 0 158 -28 204 -122c34 -69 32 -143 30 -185zM189 308h183
c0 23 -2 113 -88 113c-65 0 -92 -54 -95 -113zM361 730h93l-106 -145h-117l-104 145h94l70 -91z" />
    <glyph glyph-name="edieresis" unicode="&#xeb;" 
d="M523 215h-339c0 -33 0 -135 103 -135c37 0 73 14 88 70h135c-3 -25 -6 -66 -48 -110c-37 -39 -102 -59 -177 -59c-43 0 -126 8 -178 63c-47 48 -65 116 -65 197c0 83 20 180 105 239c39 27 86 42 142 42c72 0 159 -29 204 -122c34 -68 33 -143 30 -185zM189 308h183
c0 23 -2 113 -88 113c-64 0 -92 -54 -95 -113zM311 599v118h102v-118h-102zM139 599v118h102v-118h-102z" />
    <glyph glyph-name="emacron" unicode="&#x113;" 
d="M523 215h-339c0 -33 0 -135 103 -135c37 0 74 14 88 70h135c-2 -24 -7 -67 -48 -110c-37 -39 -103 -59 -177 -59c-43 0 -125 8 -178 63c-46 48 -65 116 -65 197c0 82 20 180 105 239c39 26 87 42 142 42c72 0 158 -28 204 -122c34 -69 32 -143 30 -185zM189 308h183
c0 23 -2 113 -88 113c-65 0 -92 -54 -95 -113zM459 624h-342v68h342v-68z" />
    <glyph glyph-name="ebreve" unicode="&#x115;" 
d="M523 215h-339c0 -33 0 -135 103 -135c37 0 74 14 88 70h135c-2 -24 -7 -67 -48 -110c-37 -39 -103 -59 -177 -59c-43 0 -125 8 -178 63c-46 48 -65 116 -65 197c0 82 20 180 105 239c39 26 87 42 142 42c72 0 158 -28 204 -122c34 -69 32 -143 30 -185zM189 308h183
c0 23 -2 113 -88 113c-65 0 -92 -54 -95 -113zM133 730h61c11 -66 56 -80 89 -80c72 0 85 53 93 80h61c-5 -79 -56 -145 -155 -145c-51 0 -95 19 -122 55c-25 32 -26 67 -27 90z" />
    <glyph glyph-name="edotaccent" unicode="&#x117;" 
d="M523 215h-339c0 -33 0 -135 103 -135c37 0 74 14 88 70h135c-2 -24 -7 -67 -48 -110c-37 -39 -103 -59 -177 -59c-43 0 -125 8 -178 63c-46 48 -65 116 -65 197c0 82 20 180 105 239c39 26 87 42 142 42c72 0 158 -28 204 -122c34 -69 32 -143 30 -185zM189 308h183
c0 23 -2 113 -88 113c-65 0 -92 -54 -95 -113zM241 599v118h102v-118h-102z" />
    <glyph glyph-name="eogonek" unicode="&#x119;" 
d="M401 -147v-44c-19 -11 -46 -26 -93 -26c-63 0 -96 32 -96 75c0 48 33 92 82 123h-9c-43 0 -126 8 -178 63c-47 48 -65 116 -65 197c0 83 20 180 105 239c39 27 86 42 142 42c72 0 159 -29 204 -122c34 -68 33 -143 30 -185h-339c0 -33 0 -135 103 -135c37 0 73 14 88 70
h135c-3 -25 -6 -66 -48 -110c-25 -27 -63 -43 -107 -52c-33 -24 -56 -48 -56 -85c0 -61 53 -62 61 -62c20 0 30 5 41 12zM189 308h183c0 23 -2 113 -88 113c-64 0 -92 -54 -95 -113z" />
    <glyph glyph-name="gcircumflex" unicode="&#x11d;" horiz-adv-x="611" 
d="M405 503h139c-4 -40 -7 -74 -7 -125v-373c0 -186 -155 -204 -252 -204c-72 0 -213 9 -222 162h142c2 -15 9 -70 88 -70c44 0 82 21 92 66c6 25 6 43 7 120c-47 -62 -100 -69 -136 -69c-145 0 -213 126 -213 248c0 128 71 250 216 250c92 0 126 -50 141 -72zM191 258
c0 -25 0 -147 99 -147c104 0 104 122 104 144c0 57 -11 154 -101 154c-56 0 -102 -43 -102 -151zM144 585l110 145h103l104 -145h-89l-68 85l-70 -85h-90z" />
    <glyph glyph-name="gbreve" unicode="&#x11f;" horiz-adv-x="611" 
d="M405 503h139c-4 -40 -7 -74 -7 -125v-373c0 -186 -155 -204 -252 -204c-72 0 -213 9 -222 162h142c2 -15 9 -70 88 -70c44 0 82 21 92 66c6 25 6 43 7 120c-47 -62 -100 -69 -136 -69c-145 0 -213 126 -213 248c0 128 71 250 216 250c92 0 126 -50 141 -72zM191 258
c0 -25 0 -147 99 -147c104 0 104 122 104 144c0 57 -11 154 -101 154c-56 0 -102 -43 -102 -151zM160 730h61c11 -66 56 -80 89 -80c72 0 85 53 93 80h61c-5 -79 -56 -145 -155 -145c-51 0 -95 19 -122 55c-25 32 -26 67 -27 90z" />
    <glyph glyph-name="gdotaccent" unicode="&#x121;" horiz-adv-x="611" 
d="M405 503h139c-4 -40 -7 -74 -7 -125v-373c0 -186 -155 -204 -252 -204c-72 0 -213 9 -222 162h142c2 -15 9 -70 88 -70c44 0 82 21 92 66c6 25 6 43 7 120c-47 -62 -100 -69 -136 -69c-145 0 -213 126 -213 248c0 128 71 250 216 250c92 0 126 -50 141 -72zM191 258
c0 -25 0 -147 99 -147c104 0 104 122 104 144c0 57 -11 154 -101 154c-56 0 -102 -43 -102 -151zM252 599v118h102v-118h-102z" />
    <glyph glyph-name="gcommaaccent" unicode="&#x123;" horiz-adv-x="611" 
d="M405 503h139c-4 -40 -7 -74 -7 -125v-373c0 -186 -155 -204 -252 -204c-72 0 -213 9 -222 162h142c2 -15 9 -70 88 -70c44 0 82 21 92 66c6 25 6 43 7 120c-47 -62 -100 -69 -136 -69c-145 0 -213 126 -213 248c0 128 71 250 216 250c92 0 126 -50 141 -72zM191 258
c0 -25 0 -147 99 -147c104 0 104 122 104 144c0 57 -11 154 -101 154c-56 0 -102 -43 -102 -151zM349 585h-106l79 159h67z" />
    <glyph glyph-name="hcircumflex" unicode="&#x125;" horiz-adv-x="611" 
d="M69 0v722h147v-286c17 24 54 76 146 76c75 0 123 -37 147 -68c18 -25 33 -71 33 -137v-307h-147v302c0 29 0 110 -83 110c-42 0 -95 -24 -95 -103l1 -309h-149zM17 761l110 145h103l104 -145h-89l-68 85l-70 -85h-90z" />
    <glyph glyph-name="hbar" unicode="&#x127;" horiz-adv-x="611" 
d="M69 0v568h-55v53h55v101h147v-101h143v-53h-143v-132c16 24 54 76 146 76c74 0 124 -37 147 -68c19 -25 33 -70 33 -137v-307h-147v302c0 29 0 110 -83 110c-42 0 -95 -24 -95 -103l1 -309h-149z" />
    <glyph glyph-name="dotlessi" unicode="&#x131;" horiz-adv-x="278" 
d="M65 0v506h148v-506h-148z" />
    <glyph glyph-name="igrave" unicode="&#xec;" horiz-adv-x="278" 
d="M65 0v506h148v-506h-148zM128 730l84 -145h-85l-139 145h140z" />
    <glyph glyph-name="iacute" unicode="&#xed;" horiz-adv-x="278" 
d="M65 0v506h148v-506h-148zM289 730l-137 -145h-80l83 145h134z" />
    <glyph glyph-name="icircumflex" unicode="&#xee;" horiz-adv-x="278" 
d="M65 0v506h148v-506h-148zM-22 585l110 145h103l104 -145h-89l-68 85l-70 -85h-90z" />
    <glyph glyph-name="itilde" unicode="&#x129;" horiz-adv-x="278" 
d="M65 0v506h148v-506h-148zM14 593h-52c11 74 58 123 118 123c21 0 48 -10 50 -11l57 -22c6 -2 17 -6 34 -6c29 0 42 21 47 46h51c-4 -36 -12 -67 -40 -93c-15 -15 -38 -29 -72 -29c-22 0 -41 7 -52 11l-43 16c-12 4 -32 10 -45 10c-17 0 -40 -7 -53 -45z" />
    <glyph glyph-name="idieresis" unicode="&#xef;" horiz-adv-x="278" 
d="M65 0v506h148v-506h-148zM172 599v118h102v-118h-102zM0 599v118h102v-118h-102z" />
    <glyph glyph-name="imacron" unicode="&#x12b;" horiz-adv-x="278" 
d="M65 0v506h148v-506h-148zM272 624h-262v68h262v-68z" />
    <glyph glyph-name="iogonek" unicode="&#x12f;" horiz-adv-x="278" 
d="M65 0v506h148v-506h-46c-41 -28 -73 -53 -73 -97c0 -61 53 -62 61 -62c20 0 30 5 41 12v-44c-19 -11 -46 -26 -93 -26c-63 0 -96 32 -96 75c0 60 49 111 117 142h-59zM60 593v129h158v-129h-158z" />
    <glyph glyph-name="dotlessj" unicode="&#x237;" horiz-adv-x="278" 
d="M-2 -194v100c67 -3 67 59 67 86v515h148v-552c0 -95 -39 -153 -165 -153c-8 0 -27 0 -50 4z" />
    <glyph glyph-name="jcircumflex" unicode="&#x135;" horiz-adv-x="278" 
d="M-2 -194v100c67 -3 67 59 67 86v515h148v-552c0 -95 -39 -153 -165 -153c-8 0 -27 0 -50 4zM-21 585l110 145h103l104 -145h-89l-68 85l-70 -85h-90z" />
    <glyph glyph-name="kcommaaccent" unicode="&#x137;" 
d="M67 0v723h147v-426l153 211h167l-173 -220l184 -288h-175l-156 275v-275h-147zM230 -66h106l-79 -159h-67z" />
    <glyph glyph-name="lacute" unicode="&#x13a;" horiz-adv-x="278" 
d="M65 0v723h148v-723h-148zM283 903l-137 -145h-80l83 145h134z" />
    <glyph glyph-name="lcaron" unicode="&#x13e;" horiz-adv-x="278" 
d="M65 0v723h148v-723h-148zM286 722h106l-79 -159h-67z" />
    <glyph glyph-name="lcommaaccent" unicode="&#x13c;" horiz-adv-x="278" 
d="M65 0v723h148v-723h-148zM90 -66h106l-79 -159h-67z" />
    <glyph glyph-name="lslash" unicode="&#x142;" horiz-adv-x="278" 
d="M65 0v293l-53 -32v103l53 33v326h148v-236l53 33v-105l-53 -32v-383h-148z" />
    <glyph glyph-name="ldot" unicode="&#x140;" horiz-adv-x="389" 
d="M65 0v723h148v-723h-148zM271 332v118h102v-118h-102z" />
    <glyph glyph-name="nacute" unicode="&#x144;" horiz-adv-x="611" 
d="M67 0v415c0 2 0 57 -3 92h142l4 -76c14 23 54 88 164 88c99 0 141 -60 154 -95c11 -31 14 -57 14 -151v-273h-151v314c0 21 0 39 -8 55c-11 22 -34 43 -72 43c-32 0 -61 -15 -77 -39c-9 -13 -18 -38 -18 -77v-296h-149zM477 730l-137 -145h-80l83 145h134z" />
    <glyph glyph-name="ncaron" unicode="&#x148;" horiz-adv-x="611" 
d="M67 0v415c0 2 0 57 -3 92h142l4 -76c14 23 54 88 164 88c99 0 141 -60 154 -95c11 -31 14 -57 14 -151v-273h-151v314c0 21 0 39 -8 55c-11 22 -34 43 -72 43c-32 0 -61 -15 -77 -39c-9 -13 -18 -38 -18 -77v-296h-149zM378 730h93l-106 -145h-117l-104 145h94l70 -91z
" />
    <glyph glyph-name="ntilde" unicode="&#xf1;" horiz-adv-x="611" 
d="M67 0v415c0 3 0 56 -3 92h142l4 -76c13 23 55 88 164 88c100 0 141 -60 154 -95c11 -32 14 -56 14 -151v-273h-151v314c0 21 0 39 -8 55c-11 23 -33 43 -72 43c-32 0 -61 -15 -77 -39c-9 -13 -18 -38 -18 -77v-296h-149zM177 593h-52c11 75 58 123 118 123
c21 0 47 -10 50 -11l57 -22c7 -3 17 -6 34 -6c29 0 42 21 47 46h51c-4 -36 -12 -66 -40 -93c-15 -15 -37 -29 -72 -29c-23 0 -41 7 -52 11l-43 16c-12 4 -32 10 -45 10c-17 0 -40 -6 -53 -45z" />
    <glyph glyph-name="ncommaaccent" unicode="&#x146;" horiz-adv-x="611" 
d="M67 0v415c0 2 0 57 -3 92h142l4 -76c14 23 54 88 164 88c99 0 141 -60 154 -95c11 -31 14 -57 14 -151v-273h-151v314c0 21 0 39 -8 55c-11 22 -34 43 -72 43c-32 0 -61 -15 -77 -39c-9 -13 -18 -38 -18 -77v-296h-149zM254 -66h106l-79 -159h-67z" />
    <glyph glyph-name="ograve" unicode="&#xf2;" horiz-adv-x="611" 
d="M42 248c0 122 62 269 261 269c184 0 262 -124 262 -265c0 -142 -81 -270 -265 -270c-144 0 -258 89 -258 266zM194 247c0 -113 38 -162 111 -162c65 0 109 39 109 173c0 67 -12 160 -111 160c-108 0 -109 -126 -109 -171zM295 730l84 -145h-85l-139 145h140z" />
    <glyph glyph-name="oacute" unicode="&#xf3;" horiz-adv-x="611" 
d="M42 248c0 122 62 269 261 269c184 0 262 -124 262 -265c0 -142 -81 -270 -265 -270c-144 0 -258 89 -258 266zM194 247c0 -113 38 -162 111 -162c65 0 109 39 109 173c0 67 -12 160 -111 160c-108 0 -109 -126 -109 -171zM456 730l-137 -145h-80l83 145h134z" />
    <glyph glyph-name="ocircumflex" unicode="&#xf4;" horiz-adv-x="611" 
d="M42 248c0 122 62 269 261 269c184 0 262 -124 262 -265c0 -142 -81 -270 -265 -270c-144 0 -258 89 -258 266zM194 247c0 -113 38 -162 111 -162c65 0 109 39 109 173c0 67 -12 160 -111 160c-108 0 -109 -126 -109 -171zM145 585l110 145h103l104 -145h-89l-68 85
l-70 -85h-90z" />
    <glyph glyph-name="otilde" unicode="&#xf5;" horiz-adv-x="611" 
d="M42 248c0 122 62 269 261 269c184 0 262 -124 262 -265c0 -142 -81 -270 -265 -270c-144 0 -258 89 -258 266zM194 247c0 -113 38 -162 111 -162c65 0 109 39 109 173c0 67 -12 160 -111 160c-108 0 -109 -126 -109 -171zM177 593h-52c11 75 58 123 118 123
c21 0 47 -10 50 -11l57 -22c7 -3 17 -6 34 -6c29 0 42 21 47 46h51c-4 -36 -12 -66 -40 -93c-15 -15 -37 -29 -72 -29c-23 0 -41 7 -52 11l-43 16c-12 4 -32 10 -45 10c-17 0 -40 -6 -53 -45z" />
    <glyph glyph-name="odieresis" unicode="&#xf6;" horiz-adv-x="611" 
d="M42 248c0 122 62 269 261 269c184 0 262 -124 262 -265c0 -142 -81 -270 -265 -270c-144 0 -258 89 -258 266zM194 247c0 -113 38 -162 111 -162c65 0 109 39 109 173c0 67 -12 160 -111 160c-108 0 -109 -126 -109 -171zM339 599v118h102v-118h-102zM167 599v118h102
v-118h-102z" />
    <glyph glyph-name="omacron" unicode="&#x14d;" horiz-adv-x="611" 
d="M42 248c0 122 62 269 261 269c183 0 262 -124 262 -265c0 -142 -82 -270 -265 -270c-144 0 -258 89 -258 266zM194 247c0 -113 38 -162 111 -162c65 0 109 39 109 173c0 67 -13 160 -111 160c-108 0 -109 -125 -109 -171zM476 624h-342v68h342v-68z" />
    <glyph glyph-name="obreve" unicode="&#x14f;" horiz-adv-x="611" 
d="M42 248c0 122 62 269 261 269c183 0 262 -124 262 -265c0 -142 -82 -270 -265 -270c-144 0 -258 89 -258 266zM194 247c0 -113 38 -162 111 -162c65 0 109 39 109 173c0 67 -13 160 -111 160c-108 0 -109 -125 -109 -171zM153 730h61c11 -66 56 -80 89 -80
c72 0 85 53 93 80h61c-5 -79 -56 -145 -155 -145c-51 0 -95 19 -122 55c-25 32 -26 67 -27 90z" />
    <glyph glyph-name="ohungarumlaut" unicode="&#x151;" horiz-adv-x="611" 
d="M42 248c0 122 62 269 261 269c183 0 262 -124 262 -265c0 -142 -82 -270 -265 -270c-144 0 -258 89 -258 266zM194 247c0 -113 38 -162 111 -162c65 0 109 39 109 173c0 67 -13 160 -111 160c-108 0 -109 -125 -109 -171zM369 730l-138 -145h-80l84 145h134zM554 730
l-138 -145h-80l84 145h134z" />
    <glyph glyph-name="oslash" unicode="&#xf8;" horiz-adv-x="611" 
d="M540 547l41 -35l-75 -78c19 -24 57 -72 57 -183c0 -146 -80 -267 -260 -267c-112 0 -154 37 -178 58l-75 -78l-41 34l80 86c-17 25 -48 72 -48 163c0 165 99 269 260 269c58 0 117 -12 165 -45zM198 195l184 190c-30 33 -69 33 -79 33c-108 0 -109 -128 -109 -164
c0 -27 2 -46 4 -59zM406 330l-190 -195c10 -18 29 -50 86 -50c101 0 110 93 110 162c0 40 -3 67 -6 83z" />
    <glyph glyph-name="oe" unicode="&#x153;" horiz-adv-x="944" 
d="M760 156h139c-8 -55 -28 -96 -70 -129c-48 -37 -108 -44 -148 -44c-115 0 -155 49 -189 92c-60 -73 -121 -93 -198 -93c-193 0 -252 141 -252 268c0 215 158 267 256 267c124 0 174 -67 194 -93c17 27 61 95 184 95c52 0 142 -14 196 -102c36 -60 35 -151 35 -198h-335
c0 -60 16 -143 102 -143c44 0 75 25 86 80zM572 311h188c0 37 -1 115 -87 115c-54 0 -93 -37 -101 -115zM305 80c109 0 117 109 117 180c0 42 0 161 -116 161c-91 0 -114 -83 -114 -171c0 -116 37 -170 113 -170z" />
    <glyph glyph-name="racute" unicode="&#x155;" horiz-adv-x="389" 
d="M65 0v381c0 24 -4 97 -7 126h139l3 -97c19 43 52 104 172 98v-133c-150 14 -159 -63 -159 -126v-249h-148zM306 730l-137 -145h-80l83 145h134z" />
    <glyph glyph-name="rcaron" unicode="&#x159;" horiz-adv-x="389" 
d="M65 0v381c0 24 -4 97 -7 126h139l3 -97c19 43 52 104 172 98v-133c-150 14 -159 -63 -159 -126v-249h-148zM261 730h93l-106 -145h-117l-104 145h94l70 -91z" />
    <glyph glyph-name="rcommaaccent" unicode="&#x157;" horiz-adv-x="389" 
d="M65 0v381c0 24 -4 97 -7 126h139l3 -97c19 43 52 104 172 98v-133c-150 14 -159 -63 -159 -126v-249h-148zM91 -66h106l-79 -159h-67z" />
    <glyph glyph-name="sacute" unicode="&#x15b;" horiz-adv-x="500" 
d="M29 146h139c2 -32 22 -69 84 -69c53 0 78 30 78 60c0 23 -12 41 -70 57l-92 25c-41 12 -128 37 -128 140c0 98 90 158 221 158c104 0 188 -48 192 -149h-135c-4 56 -49 60 -72 60c-40 0 -70 -19 -70 -50c0 -34 25 -41 69 -53l91 -25c92 -25 135 -72 135 -141
c0 -87 -75 -174 -232 -174c-65 0 -127 14 -173 62c-33 35 -36 75 -37 99zM419 730l-137 -145h-80l83 145h134z" />
    <glyph glyph-name="scircumflex" unicode="&#x15d;" horiz-adv-x="500" 
d="M29 146h139c2 -32 22 -69 84 -69c53 0 78 30 78 60c0 23 -12 41 -70 57l-92 25c-41 12 -128 37 -128 140c0 98 90 158 221 158c104 0 188 -48 192 -149h-135c-4 56 -49 60 -72 60c-40 0 -70 -19 -70 -50c0 -34 25 -41 69 -53l91 -25c92 -25 135 -72 135 -141
c0 -87 -75 -174 -232 -174c-65 0 -127 14 -173 62c-33 35 -36 75 -37 99zM99 585l110 145h103l104 -145h-89l-68 85l-70 -85h-90z" />
    <glyph glyph-name="scaron" unicode="&#x161;" horiz-adv-x="500" 
d="M29 146h139c3 -32 22 -69 84 -69c53 0 78 29 78 60c0 23 -13 41 -70 57l-92 25c-41 11 -128 37 -128 140c0 98 90 158 221 158c105 0 187 -48 192 -149h-135c-5 56 -48 60 -72 60c-40 0 -70 -19 -70 -50c0 -35 25 -41 69 -53l91 -25c92 -25 135 -72 135 -141
c0 -87 -75 -174 -232 -174c-65 0 -126 14 -173 62c-33 35 -36 75 -37 99zM322 730h93l-106 -145h-117l-104 145h94l70 -91z" />
    <glyph glyph-name="scedilla" unicode="&#x15f;" horiz-adv-x="500" 
d="M140 -195l21 42c23 -11 49 -18 70 -18c35 0 55 15 55 38c0 15 -9 37 -44 37c-19 0 -30 -5 -41 -9l-20 21l49 69c-63 3 -120 15 -164 62c-33 35 -36 75 -37 99h139c3 -32 22 -69 84 -69c53 0 78 29 78 60c0 23 -13 41 -70 57l-92 25c-41 11 -128 37 -128 140
c0 98 90 158 221 158c105 0 187 -48 192 -149h-135c-5 56 -48 60 -72 60c-40 0 -70 -19 -70 -50c0 -35 25 -41 69 -53l91 -25c92 -25 135 -72 135 -141c0 -81 -63 -159 -194 -172l-33 -45c11 3 19 4 35 4c66 0 84 -45 84 -72c0 -73 -80 -91 -126 -91c-47 0 -84 15 -97 22z
" />
    <glyph glyph-name="scommaaccent" unicode="&#x219;" horiz-adv-x="500" 
d="M29 146h139c2 -32 22 -69 84 -69c53 0 78 30 78 60c0 23 -12 41 -70 57l-92 25c-41 12 -128 37 -128 140c0 98 90 158 221 158c104 0 188 -48 192 -149h-135c-4 56 -49 60 -72 60c-40 0 -70 -19 -70 -50c0 -34 25 -41 69 -53l91 -25c92 -25 135 -72 135 -141
c0 -87 -75 -174 -232 -174c-65 0 -127 14 -173 62c-33 35 -36 75 -37 99zM211 -66h106l-79 -159h-67z" />
    <glyph glyph-name="germandbls" unicode="&#xdf;" horiz-adv-x="667" 
d="M59 0v539c0 116 70 160 86 169c48 28 104 34 160 34c110 0 232 -42 232 -150c0 -47 -17 -79 -92 -128c-15 -10 -31 -20 -31 -47c0 -14 5 -28 47 -52l78 -47c42 -24 91 -58 91 -152c0 -173 -140 -182 -201 -182c-62 0 -167 8 -177 160h131c0 -20 6 -36 16 -46
c9 -10 23 -15 36 -15c25 0 56 20 56 71c0 32 -10 61 -57 89l-78 47c-54 32 -82 53 -82 108c0 39 12 74 75 126c22 19 40 36 40 64c0 33 -26 62 -77 62c-55 0 -81 -32 -89 -43c-19 -27 -19 -64 -19 -82v-525h-145z" />
    <glyph glyph-name="tcaron" unicode="&#x165;" horiz-adv-x="389" 
d="M362 104v-97c-48 -13 -91 -16 -115 -16c-149 0 -149 94 -149 136v277h-97v98h97v99l147 54v-153h120v-98h-120v-228c1 -46 1 -75 67 -75c22 0 32 1 50 3zM360 722h106l-79 -159h-67z" />
    <glyph glyph-name="tcommaaccent" unicode="&#x163;" horiz-adv-x="389" 
d="M362 104v-97c-48 -13 -91 -16 -115 -16c-149 0 -149 94 -149 136v277h-97v98h97v99l147 54v-153h120v-98h-120v-228c1 -46 1 -75 67 -75c22 0 32 1 50 3zM155 -66h106l-79 -159h-67z" />
    <glyph glyph-name="uni021B" unicode="&#x21b;" horiz-adv-x="389" 
d="M362 104v-97c-48 -13 -91 -16 -115 -16c-149 0 -149 94 -149 136v277h-97v98h97v99l147 54v-153h120v-98h-120v-228c1 -46 1 -75 67 -75c22 0 32 1 50 3zM155 -66h106l-79 -159h-67z" />
    <glyph glyph-name="tbar" unicode="&#x167;" horiz-adv-x="389" 
d="M362 104v-97c-48 -13 -91 -16 -115 -16c-148 0 -149 94 -149 136v124h-86v53h86v100h-97v98h97v99l147 54v-153h120v-98h-120v-100h112v-53h-112v-75c0 -46 1 -75 67 -75c23 0 31 0 50 3z" />
    <glyph glyph-name="thorn" unicode="&#xfe;" horiz-adv-x="611" 
d="M42 723h150v-290c45 81 128 82 152 82c135 0 210 -103 210 -253c0 -145 -77 -269 -219 -269c-92 0 -129 46 -143 65v-252h-150v917zM296 90c93 0 107 114 107 167c0 42 -8 163 -103 163c-33 0 -64 -17 -81 -41c-21 -29 -33 -70 -33 -131c0 -52 9 -158 110 -158z" />
    <glyph glyph-name="ugrave" unicode="&#xf9;" horiz-adv-x="611" 
d="M60 505h150v-301c0 -44 -1 -111 79 -111c95 0 95 72 95 157v255h152v-333c3 -110 3 -121 3 -135c1 -15 1 -22 4 -37h-144l-5 67c-16 -21 -53 -80 -149 -80c-68 0 -124 31 -152 68c-33 41 -33 111 -33 136v314zM295 730l84 -145h-85l-139 145h140z" />
    <glyph glyph-name="uacute" unicode="&#xfa;" horiz-adv-x="611" 
d="M60 505h150v-301c0 -44 -1 -111 79 -111c95 0 95 72 95 157v255h152v-333c3 -110 3 -121 3 -135c1 -15 1 -22 4 -37h-144l-5 67c-16 -21 -53 -80 -149 -80c-68 0 -124 31 -152 68c-33 41 -33 111 -33 136v314zM456 730l-137 -145h-80l83 145h134z" />
    <glyph glyph-name="ucircumflex" unicode="&#xfb;" horiz-adv-x="611" 
d="M60 505h150v-301c0 -44 -1 -111 79 -111c95 0 95 72 95 157v255h152v-333c3 -110 3 -121 3 -135c1 -15 1 -22 4 -37h-144l-5 67c-16 -21 -53 -80 -149 -80c-68 0 -124 31 -152 68c-33 41 -33 111 -33 136v314zM145 585l110 145h103l104 -145h-89l-68 85l-70 -85h-90z" />
    <glyph glyph-name="utilde" unicode="&#x169;" horiz-adv-x="611" 
d="M60 505h150v-301c0 -44 0 -111 79 -111c95 0 95 71 95 157v255h152v-333c2 -109 3 -122 3 -135c1 -14 2 -23 4 -37h-144l-5 67c-15 -22 -53 -80 -149 -80c-68 0 -124 31 -152 68c-33 41 -33 111 -33 136v314zM187 593h-52c11 74 58 123 118 123c21 0 48 -10 50 -11
l57 -22c6 -2 17 -6 34 -6c29 0 42 21 47 46h51c-4 -36 -12 -67 -40 -93c-15 -15 -38 -29 -72 -29c-22 0 -41 7 -52 11l-43 16c-12 4 -32 10 -45 10c-17 0 -40 -7 -53 -45z" />
    <glyph glyph-name="udieresis" unicode="&#xfc;" horiz-adv-x="611" 
d="M60 505h150v-301c0 -44 -1 -111 79 -111c95 0 95 72 95 157v255h152v-333c3 -110 3 -121 3 -135c1 -15 1 -22 4 -37h-144l-5 67c-16 -21 -53 -80 -149 -80c-68 0 -124 31 -152 68c-33 41 -33 111 -33 136v314zM339 599v118h102v-118h-102zM167 599v118h102v-118h-102z
" />
    <glyph glyph-name="umacron" unicode="&#x16b;" horiz-adv-x="611" 
d="M60 505h150v-301c0 -44 0 -111 79 -111c95 0 95 71 95 157v255h152v-333c2 -109 3 -122 3 -135c1 -14 2 -23 4 -37h-144l-5 67c-15 -22 -53 -80 -149 -80c-68 0 -124 31 -152 68c-33 41 -33 111 -33 136v314zM471 624h-342v68h342v-68z" />
    <glyph glyph-name="ubreve" unicode="&#x16d;" horiz-adv-x="611" 
d="M60 505h150v-301c0 -44 0 -111 79 -111c95 0 95 71 95 157v255h152v-333c2 -109 3 -122 3 -135c1 -14 2 -23 4 -37h-144l-5 67c-15 -22 -53 -80 -149 -80c-68 0 -124 31 -152 68c-33 41 -33 111 -33 136v314zM151 730h61c11 -66 56 -80 89 -80c72 0 85 53 93 80h61
c-5 -79 -56 -145 -155 -145c-51 0 -95 19 -122 55c-25 32 -26 67 -27 90z" />
    <glyph glyph-name="uring" unicode="&#x16f;" horiz-adv-x="611" 
d="M60 505h150v-301c0 -44 0 -111 79 -111c95 0 95 71 95 157v255h152v-333c2 -109 3 -122 3 -135c1 -14 2 -23 4 -37h-144l-5 67c-15 -22 -53 -80 -149 -80c-68 0 -124 31 -152 68c-33 41 -33 111 -33 136v314zM298 760c59 0 101 -46 101 -102s-45 -102 -101 -102
c-55 0 -101 45 -101 102c0 56 45 102 101 102zM298 712c-29 0 -53 -23 -53 -54c0 -29 24 -53 53 -53c31 0 54 24 54 53s-23 54 -54 54z" />
    <glyph glyph-name="uhungarumlaut" unicode="&#x171;" horiz-adv-x="611" 
d="M60 505h150v-301c0 -44 0 -111 79 -111c95 0 95 71 95 157v255h152v-333c2 -109 3 -122 3 -135c1 -14 2 -23 4 -37h-144l-5 67c-15 -22 -53 -80 -149 -80c-68 0 -124 31 -152 68c-33 41 -33 111 -33 136v314zM370 730l-138 -145h-80l84 145h134zM555 730l-138 -145h-80
l84 145h134z" />
    <glyph glyph-name="uogonek" unicode="&#x173;" horiz-adv-x="611" 
d="M505 -147v-44c-19 -11 -46 -26 -93 -26c-63 0 -96 32 -96 75c0 60 49 111 117 142h-34l-5 67c-16 -21 -53 -80 -149 -80c-68 0 -124 31 -152 68c-33 41 -33 111 -33 136v314h150v-301c0 -44 -1 -111 79 -111c95 0 95 72 95 157v255h152v-333c3 -110 3 -121 3 -135
c1 -15 1 -22 4 -37h-67c-41 -28 -73 -53 -73 -97c0 -61 53 -62 61 -62c20 0 30 5 41 12z" />
    <glyph glyph-name="wcircumflex" unicode="&#x175;" horiz-adv-x="889" 
d="M5 505h157l93 -381l107 381h163l106 -381l99 381h147l-173 -505h-161l-104 374l-106 -374h-163zM285 585l110 145h103l104 -145h-89l-68 85l-70 -85h-90z" />
    <glyph glyph-name="yacute" unicode="&#xfd;" 
d="M14 505h160l111 -350l113 350h147l-191 -496l-61 -201h-149l64 190zM443 730l-137 -145h-80l83 145h134z" />
    <glyph glyph-name="ycircumflex" unicode="&#x177;" 
d="M14 505h160l111 -350l113 350h147l-191 -496l-61 -201h-149l64 190zM125 585l110 145h103l104 -145h-89l-68 85l-70 -85h-90z" />
    <glyph glyph-name="ydieresis" unicode="&#xff;" 
d="M14 505h160l111 -350l113 350h147l-191 -496l-61 -201h-149l64 190zM311 599v118h102v-118h-102zM139 599v118h102v-118h-102z" />
    <glyph glyph-name="zacute" unicode="&#x17a;" horiz-adv-x="500" 
d="M32 0v130l256 276h-249v99h414v-127l-256 -276h266v-102h-431zM400 730l-137 -145h-80l83 145h134z" />
    <glyph glyph-name="zcaron" unicode="&#x17e;" horiz-adv-x="500" 
d="M32 0v130l256 276h-249v99h414v-127l-256 -276h266v-102h-431zM322 730h93l-106 -145h-117l-104 145h94l70 -91z" />
    <glyph glyph-name="zdotaccent" unicode="&#x17c;" horiz-adv-x="500" 
d="M32 0v130l256 276h-249v99h414v-127l-256 -276h266v-102h-431zM206 599v118h102v-118h-102z" />
    <glyph glyph-name="grave.cap" unicode="&#xe300;" horiz-adv-x="278" 
d="M128 918l84 -145h-85l-139 145h140z" />
    <glyph glyph-name="acute" unicode="&#xb4;" horiz-adv-x="278" 
d="M289 730l-137 -145h-80l83 145h134z" />
    <glyph glyph-name="acute.cap" unicode="&#xe301;" horiz-adv-x="278" 
d="M289 918l-137 -145h-80l83 145h134z" />
    <glyph glyph-name="circumflex" unicode="&#x2c6;" horiz-adv-x="278" 
d="M-22 585l110 145h103l104 -145h-89l-68 85l-70 -85h-90z" />
    <glyph glyph-name="circumflex.cap" unicode="&#xe302;" horiz-adv-x="278" 
d="M-22 773l110 145h103l104 -145h-89l-68 85l-70 -85h-90z" />
    <glyph glyph-name="caron" unicode="&#x2c7;" horiz-adv-x="278" 
d="M211 730h93l-106 -145h-117l-104 145h94l70 -91z" />
    <glyph glyph-name="caron.cap" unicode="&#xe303;" horiz-adv-x="278" 
d="M211 918h93l-106 -145h-117l-104 145h94l70 -91z" />
    <glyph glyph-name="caron.alt" unicode="&#xe30b;" horiz-adv-x="278" 
d="M118 722h106l-79 -159h-67z" />
    <glyph glyph-name="tilde" unicode="&#x2dc;" horiz-adv-x="278" 
d="M10 593h-52c11 74 58 123 118 123c21 0 48 -10 50 -11l57 -22c6 -2 17 -6 34 -6c29 0 42 21 47 46h51c-4 -36 -12 -67 -40 -93c-15 -15 -38 -29 -72 -29c-22 0 -41 7 -52 11l-43 16c-12 4 -32 10 -45 10c-17 0 -40 -7 -53 -45z" />
    <glyph glyph-name="tilde.cap" unicode="&#xe304;" horiz-adv-x="278" 
d="M10 781h-52c11 75 58 123 118 123c21 0 47 -10 50 -11l57 -22c7 -3 17 -6 34 -6c29 0 42 21 47 46h51c-4 -36 -12 -66 -40 -93c-15 -15 -37 -29 -72 -29c-23 0 -41 7 -52 11l-43 16c-12 4 -32 10 -45 10c-17 0 -40 -6 -53 -45z" />
    <glyph glyph-name="dieresis" unicode="&#xa8;" horiz-adv-x="278" 
d="M172 599v118h102v-118h-102zM0 599v118h102v-118h-102z" />
    <glyph glyph-name="dieresis.cap" unicode="&#xe305;" horiz-adv-x="278" 
d="M172 787v118h102v-118h-102zM0 787v118h102v-118h-102z" />
    <glyph glyph-name="macron" unicode="&#xaf;" horiz-adv-x="278" 
d="M306 624h-342v68h342v-68z" />
    <glyph glyph-name="macron.cap" unicode="&#xe306;" horiz-adv-x="278" 
d="M306 812h-342v68h342v-68z" />
    <glyph glyph-name="uni02C9" unicode="&#x2c9;" horiz-adv-x="278" 
d="M306 624h-342v68h342v-68z" />
    <glyph glyph-name="breve" unicode="&#x2d8;" horiz-adv-x="278" 
d="M-14 730h61c11 -66 56 -80 89 -80c72 0 85 53 93 80h61c-5 -79 -56 -145 -155 -145c-51 0 -95 19 -122 55c-25 32 -26 67 -27 90z" />
    <glyph glyph-name="breve.cap" unicode="&#xe307;" horiz-adv-x="278" 
d="M-14 918h61c11 -66 56 -80 89 -80c72 0 85 53 93 80h61c-5 -79 -56 -145 -155 -145c-51 0 -95 19 -122 55c-25 32 -26 67 -27 90z" />
    <glyph glyph-name="ring" unicode="&#x2da;" horiz-adv-x="278" 
d="M139 760c59 0 101 -46 101 -102s-45 -102 -101 -102c-55 0 -101 45 -101 102c0 56 45 102 101 102zM139 712c-29 0 -53 -23 -53 -54c0 -29 24 -53 53 -53c31 0 54 24 54 53s-23 54 -54 54z" />
    <glyph glyph-name="ring.cap" unicode="&#xe308;" horiz-adv-x="278" 
d="M139 948c59 0 101 -46 101 -102s-45 -102 -101 -102c-55 0 -101 45 -101 102c0 56 45 102 101 102zM139 900c-29 0 -53 -23 -53 -54c0 -29 24 -53 53 -53c31 0 54 24 54 53s-23 54 -54 54z" />
    <glyph glyph-name="hungarumlaut" unicode="&#x2dd;" 
d="M336 730l-138 -145h-80l84 145h134zM521 730l-138 -145h-80l84 145h134z" />
    <glyph glyph-name="hungarumlaut.cap" unicode="&#xe309;" 
d="M336 918l-138 -145h-80l84 145h134zM521 918l-138 -145h-80l84 145h134z" />
    <glyph glyph-name="dotaccent" unicode="&#x2d9;" horiz-adv-x="278" 
d="M88 599v118h102v-118h-102z" />
    <glyph glyph-name="dotaccent.cap" unicode="&#xe30a;" horiz-adv-x="278" 
d="M88 787v118h102v-118h-102z" />
    <glyph glyph-name="cedilla" unicode="&#xb8;" horiz-adv-x="278" 
d="M15 -195l21 42c23 -10 49 -18 70 -18c34 0 55 16 55 38c0 14 -10 37 -44 37c-19 0 -31 -5 -41 -9l-20 21l64 90h47l-48 -64c11 2 19 4 35 4c66 0 84 -45 84 -72c0 -73 -80 -91 -126 -91s-84 16 -97 22z" />
    <glyph glyph-name="ogonek" unicode="&#x2db;" horiz-adv-x="278" 
d="M232 -147v-44c-19 -11 -46 -26 -93 -26c-63 0 -96 32 -96 75c0 60 51 112 119 143h43c-43 -29 -75 -54 -75 -98c0 -61 53 -62 61 -62c20 0 30 5 41 12z" />
    <glyph glyph-name="commaaccent" unicode="&#xe30c;" horiz-adv-x="278" 
d="M101 -66h106l-79 -159h-67z" />
    <glyph glyph-name="commaaccent.alt" unicode="&#xe30d;" horiz-adv-x="278" 
d="M176 585h-106l79 159h67z" />
    <glyph glyph-name="ellipsis" unicode="&#x2026;" horiz-adv-x="1000" 
d="M117 0v133h127v-133h-127zM437 0v133h127v-133h-127zM757 0v133h127v-133h-127z" />
    <glyph glyph-name="uni00AD" unicode="&#xad;" horiz-adv-x="333" 
d="M44 208v113h248v-113h-248z" />
    <glyph glyph-name="exclamdown" unicode="&#xa1;" horiz-adv-x="389" 
d="M149 337h103l19 -527h-134zM264 534v-134h-127v134h127z" />
    <glyph glyph-name="questiondown" unicode="&#xbf;" horiz-adv-x="500" 
d="M239 366h113v-93c0 -22 0 -46 -37 -88l-44 -49c-40 -46 -76 -95 -76 -145c0 -24 9 -99 120 -99c46 0 78 9 133 24v-105c-37 -9 -89 -19 -168 -19c-119 0 -238 53 -238 187c0 19 1 58 27 95c31 44 42 54 53 64l56 51c54 48 61 63 61 96v81zM355 528v-120h-120v120h120z
" />
    <glyph glyph-name="quoteleft" unicode="&#x2018;" horiz-adv-x="278" 
d="M240 722l-71 -247h-146l112 247h105z" />
    <glyph glyph-name="quoteright" unicode="&#x2019;" horiz-adv-x="278" 
d="M39 475l71 247h146l-112 -247h-105z" />
    <glyph glyph-name="quotedblleft" unicode="&#x201c;" 
d="M280 722l-71 -247h-145l112 247h104zM476 722l-71 -247h-146l112 247h105z" />
    <glyph glyph-name="quotedblright" unicode="&#x201d;" 
d="M67 475l71 247h146l-113 -247h-104zM263 475l70 247h146l-112 -247h-104z" />
    <glyph glyph-name="quotesinglbase" unicode="&#x201a;" horiz-adv-x="278" 
d="M102 133h148l-119 -246h-103z" />
    <glyph glyph-name="quotedblbase" unicode="&#x201e;" 
d="M171 -113h-103l71 246h143zM370 -113h-103l71 246h143z" />
    <glyph glyph-name="guilsinglleft" unicode="&#x2039;" horiz-adv-x="278" 
d="M126 56l-109 196l109 190h132l-95 -190l95 -196h-132z" />
    <glyph glyph-name="guilsinglright" unicode="&#x203a;" horiz-adv-x="278" 
d="M10 442h132l109 -197l-109 -189h-132l95 189z" />
    <glyph glyph-name="guillemotleft" unicode="&#xab;" 
d="M137 56l-109 196l109 190h132l-95 -190l95 -196h-132zM380 56l-109 196l109 190h132l-95 -190l95 -196h-132z" />
    <glyph glyph-name="guillemotright" unicode="&#xbb;" 
d="M164 56h-132l95 189l-95 197h132l109 -197zM407 56h-132l95 189l-95 197h132l109 -197z" />
    <glyph glyph-name="endash" unicode="&#x2013;" horiz-adv-x="500" 
d="M0 213v97h500v-97h-500z" />
    <glyph glyph-name="emdash" unicode="&#x2014;" horiz-adv-x="1000" 
d="M130 213v97h740v-97h-740z" />
    <glyph glyph-name="bullet" unicode="&#x2022;" horiz-adv-x="350" 
d="M175 542c99 0 181 -79 181 -180c0 -100 -81 -181 -181 -181s-181 81 -181 181c0 101 82 180 181 180z" />
    <glyph glyph-name="periodcentered" unicode="&#xb7;" horiz-adv-x="278" 
d="M74 213v133h127v-133h-127z" />
    <glyph glyph-name="uni2219" unicode="&#x2219;" horiz-adv-x="278" 
d="M74 213v133h127v-133h-127z" />
    <glyph glyph-name="dagger" unicode="&#x2020;" 
d="M214 465h-161v100h161v157h122v-157h157v-100h-157v-465h-122v465z" />
    <glyph glyph-name="daggerdbl" unicode="&#x2021;" 
d="M336 572h159v-97h-159v-225h159v-97h-159v-153h-122v153h-158v97h158v225h-161v97h161v150h122v-150z" />
    <glyph glyph-name="section" unicode="&#xa7;" 
d="M90 10l3 112c28 -15 83 -43 143 -43c43 0 84 14 84 53c0 33 -32 44 -58 53l-88 31c-73 25 -102 83 -102 134c0 46 25 100 91 126c-21 9 -76 36 -76 112c0 87 77 140 192 140c78 0 130 -21 154 -30l-3 -103c-32 14 -89 39 -146 39c-10 0 -31 -1 -44 -12
c-8 -7 -14 -19 -14 -31c0 -32 33 -46 45 -51l88 -29c79 -26 102 -75 102 -129c0 -65 -40 -105 -83 -125c39 -20 84 -57 84 -120c0 -93 -82 -157 -201 -157c-15 0 -84 1 -171 30zM267 292c53 19 69 57 69 81c0 51 -52 63 -74 67c-38 -11 -71 -34 -71 -74c0 -48 48 -65 76 -74
z" />
    <glyph glyph-name="paragraph" unicode="&#xb6;" 
d="M571 609h-51v-796h-125v796h-95v-796h-125v425c-34 3 -82 8 -127 49c-59 53 -70 128 -70 175c0 121 75 250 264 250h329v-103z" />
    <glyph glyph-name="brokenbar" unicode="&#xa6;" horiz-adv-x="278" 
d="M73 675h132v-350h-132v350zM73 175h132v-350h-132v350z" />
    <glyph glyph-name="copyright" unicode="&#xa9;" horiz-adv-x="800" 
d="M398 738c206 0 378 -166 378 -378c0 -209 -169 -378 -378 -378c-208 0 -377 169 -377 378c0 212 172 378 377 378zM398 676c-173 0 -316 -140 -316 -316c0 -174 141 -316 316 -316c176 0 317 143 317 316c0 175 -143 316 -317 316zM581 439h-102c-1 15 -8 77 -75 77
c-105 0 -105 -131 -105 -158c0 -26 0 -154 101 -154c37 0 78 23 80 82h105c-2 -24 -5 -67 -45 -105c-38 -35 -85 -46 -132 -46c-158 0 -212 109 -212 219c0 138 82 230 212 230c101 0 172 -57 173 -145z" />
    <glyph glyph-name="registered" unicode="&#xae;" horiz-adv-x="800" 
d="M400 738c204 0 378 -164 378 -378c0 -208 -170 -378 -378 -378c-206 0 -378 168 -378 378c0 214 176 378 378 378zM399 677c-172 0 -316 -138 -316 -316c0 -176 142 -318 316 -318c176 0 318 145 318 318c0 176 -144 316 -318 316zM258 148v424h146c50 0 148 0 148 -112
c0 -78 -50 -94 -80 -104c58 -4 62 -42 70 -96c4 -34 10 -92 22 -112h-90c-2 20 -16 128 -16 134c-6 24 -14 36 -44 36h-74v-170h-82zM338 504v-118h66c54 0 64 38 64 60c0 58 -40 58 -62 58h-68z" />
    <glyph glyph-name="trademark" unicode="&#x2122;" horiz-adv-x="1000" 
d="M445 362v361h122l73 -264l79 264h118v-361h-74v310l-94 -310h-62l-93 310v-310h-69zM211 362v301h-127v60h329v-60h-126v-301h-76z" />
    <glyph glyph-name="currency" unicode="&#xa4;" 
d="M20 169l67 67c-13 22 -32 56 -32 112c0 55 20 91 32 113l-68 67l78 78l67 -67c30 15 63 31 111 31c53 0 90 -19 115 -32l66 67l77 -77l-66 -67c12 -22 31 -57 31 -113c0 -58 -21 -95 -31 -113l67 -66l-78 -78l-67 67c-23 -13 -56 -31 -112 -31c-55 0 -91 19 -113 31
l-67 -67zM277 454c-59 0 -106 -47 -106 -106c0 -58 47 -106 106 -106c58 0 106 48 106 106c0 59 -48 106 -106 106z" />
    <glyph glyph-name="Euro" unicode="&#x20ac;" 
d="M27 321h46v25c0 12 1 33 2 45h-60l19 66h47c19 143 123 247 279 247c93 0 151 -21 186 -48l-39 -124c-32 37 -75 56 -138 56c-72 0 -129 -34 -144 -131h265l-19 -66h-252c-1 -12 -3 -33 -3 -45v-25h239l-18 -66h-217c11 -91 60 -153 140 -153c64 0 101 13 142 48v-123
c-36 -29 -100 -42 -156 -42c-164 0 -252 105 -268 270h-69z" />
    <glyph glyph-name="cent" unicode="&#xa2;" 
d="M438 637l-36 -143c102 -39 103 -135 103 -168h-144c-1 18 -6 93 -64 93c-75 0 -80 -121 -80 -163c0 -78 19 -170 77 -170c20 0 64 12 69 97h146c-3 -37 -8 -123 -96 -170c-56 -30 -116 -27 -139 -25l-34 -136h-68l37 149c-64 18 -146 97 -146 249c0 153 82 264 241 264
c18 0 26 -1 33 -2l32 125h69z" />
    <glyph glyph-name="sterling" unicode="&#xa3;" 
d="M30 0v116h73v207h-84v112h85v88c0 38 1 110 73 159c29 20 74 43 158 43c187 0 199 -117 205 -186h-150c-1 24 -4 85 -66 85c-67 0 -67 -71 -67 -87v-102h169v-112h-169v-207h264v-116h-491z" />
    <glyph glyph-name="florin" unicode="&#x192;" 
d="M30 -155l21 113c6 -1 12 -2 19 -2c40 0 47 23 51 44l69 350h-65l19 101h66l11 57c25 120 49 192 172 192c31 0 55 -3 82 -7l-22 -110c-73 10 -80 -26 -90 -78l-11 -54h72l-15 -101h-76l-75 -375c-8 -39 -16 -79 -52 -103c-21 -14 -57 -32 -116 -32c-7 0 -30 0 -60 5z" />
    <glyph glyph-name="yen" unicode="&#xa5;" 
d="M204 0v137h-163v74h163v71h-163v74h125l-166 364h181l108 -329l111 329h160l-164 -364h119v-74h-159v-70h159v-74h-158l-1 -138h-152z" />
    <glyph glyph-name="ordfeminine" unicode="&#xaa;" horiz-adv-x="334" 
d="M318 392h-87c-3 20 -3 32 -3 42c-15 -21 -38 -49 -98 -49c-88 0 -111 52 -111 90c0 44 30 84 80 99c44 12 91 12 120 12c0 27 0 66 -47 66c-17 0 -44 -8 -44 -44h-94c0 79 80 96 136 96c109 0 140 -50 140 -113v-122c0 -23 3 -55 8 -77zM219 535c-59 4 -106 -11 -106 -50
c0 -24 19 -42 48 -42c57 0 58 63 58 92z" />
    <glyph glyph-name="ordmasculine" unicode="&#xba;" horiz-adv-x="367" 
d="M14 541c0 97 63 161 170 161c114 0 170 -69 170 -159c0 -87 -56 -162 -172 -162c-126 0 -168 86 -168 160zM113 540c0 -65 23 -97 71 -97s72 30 72 102c0 60 -19 98 -71 98c-66 0 -72 -63 -72 -103z" />
    <glyph glyph-name="onesuperior" unicode="&#xb9;" horiz-adv-x="333" 
d="M48 553v84c57 22 104 52 120 63h84v-419h-98v326c-35 -23 -75 -43 -106 -54z" />
    <glyph glyph-name="twosuperior" unicode="&#xb2;" horiz-adv-x="333" 
d="M112 585h-99c0 17 0 47 26 78c30 33 83 46 131 46c94 0 152 -47 152 -114c0 -48 -18 -76 -91 -144c-42 -40 -76 -66 -123 -101c52 1 145 3 217 4v-69h-318v84l117 99c33 27 59 51 82 81c15 20 18 35 18 46c0 28 -21 51 -53 51c-40 0 -57 -29 -59 -61z" />
    <glyph glyph-name="threesuperior" unicode="&#xb3;" horiz-adv-x="333" 
d="M6 395h99c1 -13 5 -56 59 -56c27 0 58 15 58 57c0 62 -60 62 -111 62v70c49 1 112 6 112 62c0 33 -27 50 -57 50c-33 0 -56 -22 -55 -52h-99c2 19 4 47 26 71c19 21 61 46 128 46c104 0 151 -62 151 -114c0 -70 -66 -89 -87 -95c68 -19 91 -57 91 -100
c0 -72 -71 -124 -164 -124c-19 0 -90 2 -124 42c-26 30 -27 62 -27 81z" />
    <glyph glyph-name="fraction" unicode="&#x2044;" horiz-adv-x="167" 
d="M-167 -28l417 753h82l-417 -753h-82z" />
    <glyph glyph-name="uni2215" unicode="&#x2215;" horiz-adv-x="167" 
d="M-167 -28l417 753h82l-417 -753h-82z" />
    <glyph glyph-name="onequarter" unicode="&#xbc;" horiz-adv-x="834" 
d="M665 91h-179v81l182 247h98l-2 -259h62v-69h-63v-91h-98v91zM674 315l-115 -157h111zM142 -28l416 753h83l-417 -753h-82zM9 553v84c57 22 104 52 120 63h84v-419h-98v326c-35 -23 -75 -43 -106 -54z" />
    <glyph glyph-name="onehalf" unicode="&#xbd;" horiz-adv-x="834" 
d="M140 -28l417 753h82l-417 -753h-82zM22 553v84c57 22 104 52 120 63h84v-419h-98v326c-35 -23 -75 -43 -106 -54zM598 300h-99c0 17 0 48 27 78c29 34 83 46 130 46c94 0 152 -47 152 -114c0 -47 -18 -75 -91 -144c-42 -40 -76 -65 -123 -101c52 2 145 3 217 4v-69h-318
v85l118 98c32 27 58 52 81 81c15 20 18 35 18 46c0 28 -21 51 -52 51c-41 0 -58 -29 -60 -61z" />
    <glyph glyph-name="threequarters" unicode="&#xbe;" horiz-adv-x="834" 
d="M653 91h-179v81l182 247h99l-3 -259h62v-69h-62v-91h-99v91zM655 315l-115 -157h111l3 111c0 6 0 39 1 46zM186 -28l416 753h82l-416 -753h-82zM24 395h98c2 -13 6 -56 60 -56c27 0 57 15 57 57c0 62 -59 62 -111 62v70c50 1 113 6 113 62c0 33 -27 50 -57 50
c-33 0 -56 -22 -56 -52h-98c2 19 4 47 26 71c19 21 61 46 128 46c104 0 151 -62 151 -114c0 -70 -66 -89 -87 -95c68 -19 91 -57 91 -100c0 -72 -71 -124 -164 -124c-19 0 -90 2 -124 42c-26 30 -27 62 -27 81z" />
    <glyph glyph-name="perthousand" unicode="&#x2030;" horiz-adv-x="1000" 
d="M509 335c102 0 142 -63 142 -160c0 -60 -4 -184 -140 -184c-108 0 -141 77 -141 170c0 97 31 174 139 174zM511 68c33 0 43 28 43 97c0 53 -5 94 -41 94c-40 0 -43 -44 -43 -102c0 -54 5 -89 41 -89zM845 335c103 0 143 -63 143 -160c0 -60 -4 -184 -140 -184
c-108 0 -142 77 -142 170c0 97 31 174 139 174zM848 68c33 0 42 28 42 97c0 53 -4 94 -41 94c-39 0 -43 -44 -43 -102c0 -54 6 -89 42 -89zM147 719c103 0 142 -62 142 -159c0 -61 -3 -185 -139 -185c-108 0 -142 77 -142 171c0 97 31 173 139 173zM150 452
c33 0 42 28 42 97c0 53 -4 95 -41 95c-39 0 -43 -45 -43 -103c0 -53 6 -89 42 -89zM151 -16h-75l427 743h73z" />
    <glyph glyph-name="minus" unicode="&#x2212;" horiz-adv-x="584" 
d="M26 202v129h532v-129h-532z" />
    <glyph glyph-name="plusminus" unicode="&#xb1;" horiz-adv-x="584" 
d="M225 131v149h-199v130h199v156h134v-156h199v-130h-199v-149h-134zM26 -33v130h532v-130h-532z" />
    <glyph glyph-name="multiply" unicode="&#xd7;" horiz-adv-x="584" 
d="M33 99l167 167l-167 168l92 92l167 -168l167 168l92 -92l-167 -168l167 -167l-92 -92l-167 168l-167 -168z" />
    <glyph glyph-name="divide" unicode="&#xf7;" horiz-adv-x="584" 
d="M21 202v129h533v-129h-533zM213 4v147h149v-147h-149zM213 382v147h149v-147h-149z" />
    <glyph glyph-name="notequal" unicode="&#x2260;" horiz-adv-x="584" 
d="M550 110h-273l-74 -146l-115 56l47 90h-102v127h167l43 84h-210v127h275l75 145l115 -55l-47 -90h99v-127h-164l-43 -84h207v-127z" />
    <glyph glyph-name="approxequal" unicode="&#x2248;" horiz-adv-x="584" 
d="M473 468h97c-11 -123 -69 -192 -161 -192c-80 0 -185 64 -246 64c-28 0 -44 -27 -51 -55h-96c8 91 52 183 162 183c83 0 165 -59 245 -59c29 0 45 22 50 59zM472 247h97c-11 -86 -47 -184 -159 -184c-81 0 -188 65 -248 65c-28 0 -45 -26 -52 -62h-96
c8 92 51 191 158 191c83 0 168 -61 251 -61c27 0 42 22 49 51z" />
    <glyph glyph-name="lessequal" unicode="&#x2264;" horiz-adv-x="584" 
d="M546 18h-508v123h508v-123zM546 154l-508 214v103l508 214v-136l-306 -131l306 -127v-137z" />
    <glyph glyph-name="greaterequal" unicode="&#x2265;" horiz-adv-x="584" 
d="M38 18v123h508v-123h-508zM38 154v137l306 127l-306 131v136l508 -214v-103z" />
    <glyph glyph-name="logicalnot" unicode="&#xac;" horiz-adv-x="584" 
d="M24 318v130h533v-363h-134v233h-399z" />
    <glyph glyph-name="Delta" unicode="&#x2206;" horiz-adv-x="698" 
d="M689 0h-680l268 710h128zM500 125l-161 417l-151 -417h312z" />
    <glyph glyph-name="uni0394" unicode="&#x394;" horiz-adv-x="698" 
d="M689 0h-680l268 710h128zM500 125l-161 417l-151 -417h312z" />
    <glyph glyph-name="Omega" unicode="&#x2126;" horiz-adv-x="765" 
d="M710 0h-283v204c47 11 83 35 107 70c25 35 37 79 37 127c0 113 -84 197 -190 197c-109 0 -192 -83 -192 -198c0 -99 53 -172 142 -196v-204h-283v125h170v21c-56 19 -99 52 -127 97c-29 46 -43 100 -43 161c0 188 149 317 331 317c183 0 331 -126 331 -314
c0 -123 -53 -226 -170 -261v-21h170v-125z" />
    <glyph glyph-name="uni03A9" unicode="&#x3a9;" horiz-adv-x="765" 
d="M710 0h-283v204c47 11 83 35 107 70c25 35 37 79 37 127c0 113 -84 197 -190 197c-109 0 -192 -83 -192 -198c0 -99 53 -172 142 -196v-204h-283v125h170v21c-56 19 -99 52 -127 97c-29 46 -43 100 -43 161c0 188 149 317 331 317c183 0 331 -126 331 -314
c0 -123 -53 -226 -170 -261v-21h170v-125z" />
    <glyph glyph-name="mu" unicode="&#xb5;" horiz-adv-x="611" 
d="M70 -212l1 717h128v-244c0 -93 8 -163 95 -163c95 0 98 92 98 160v247h129v-505h-110v60c-16 -25 -45 -69 -114 -69c-63 0 -87 32 -101 50v-253h-126z" />
    <glyph glyph-name="uni03BC" unicode="&#x3bc;" horiz-adv-x="611" 
d="M70 -212l1 717h128v-244c0 -93 8 -163 95 -163c95 0 98 92 98 160v247h129v-505h-110v60c-16 -24 -46 -69 -114 -69c-62 0 -88 32 -101 50v-253h-126z" />
    <glyph glyph-name="pi" unicode="&#x3c0;" horiz-adv-x="593" 
d="M580 93v-80c-28 -13 -64 -20 -95 -20c-88 0 -114 56 -114 131v279h-173v-403h-127v403h-60v102h566v-102h-79v-262c0 -28 1 -58 38 -58c14 0 29 3 44 10z" />
    <glyph glyph-name="degree" unicode="&#xb0;" horiz-adv-x="400" 
d="M198 708c93 0 169 -75 169 -169s-75 -169 -169 -169c-93 0 -169 75 -169 169s77 169 169 169zM198 605c-35 0 -66 -29 -66 -66s30 -66 66 -66c38 0 67 30 67 66s-30 66 -67 66z" />
    <glyph glyph-name="afii61289" unicode="&#x2113;" horiz-adv-x="500" 
d="M408 123l46 -70c-53 -45 -106 -67 -170 -67c-104 0 -163 62 -163 146v44l-55 -48h-2l-48 73l104 86v238c0 112 75 196 179 196c92 0 149 -60 149 -149c0 -103 -62 -198 -191 -307v-111c0 -52 32 -68 61 -68c26 0 55 12 88 37h2zM337 563c0 37 -15 68 -39 68
c-23 0 -41 -31 -41 -80v-170c57 60 80 122 80 182z" />
    <glyph glyph-name="estimated" unicode="&#x212e;" horiz-adv-x="600" 
d="M157 295h291v145c-42 40 -91 60 -147 60s-104 -20 -144 -60v-145zM561 259h-404v-181c39 -39 88 -59 145 -59c84 0 142 36 193 120l35 -21c-61 -96 -123 -135 -228 -135c-157 0 -258 122 -258 276c0 155 101 276 258 276c154 0 259 -114 259 -276z" />
    <glyph glyph-name="infinity" unicode="&#x221e;" horiz-adv-x="826" 
d="M781 265c0 -104 -65 -187 -176 -187c-83 0 -140 51 -191 107c-53 -56 -105 -106 -190 -106c-110 0 -179 80 -179 185c0 101 66 183 175 183c87 0 143 -55 194 -114c49 60 106 115 192 115c109 0 175 -82 175 -183zM677 262c0 44 -26 78 -73 78c-49 0 -93 -47 -125 -79
c33 -37 77 -75 128 -75c44 0 70 33 70 76zM347 261c-32 32 -82 78 -127 78c-43 0 -71 -36 -71 -77c0 -45 29 -75 74 -75c47 0 93 40 124 74z" />
    <glyph glyph-name="partialdiff" unicode="&#x2202;" horiz-adv-x="611" 
d="M551 358c0 -164 -44 -371 -264 -371c-139 0 -233 99 -233 235c0 131 88 224 228 224c51 0 92 -15 131 -42c-8 82 -28 204 -140 204c-47 0 -87 -15 -130 -58l-68 91c60 52 119 80 195 80c216 0 281 -191 281 -363zM409 271c0 7 0 12 -1 19c-32 31 -66 50 -109 50
c-72 0 -107 -56 -107 -125c0 -66 35 -120 99 -120c85 0 118 97 118 176z" />
    <glyph glyph-name="integral" unicode="&#x222b;" horiz-adv-x="622" 
d="M502 702c0 -33 -24 -59 -59 -59c-57 0 -49 61 -74 66c-13 -5 -14 -26 -14 -39c0 -35 3 -68 3 -103v-455c0 -177 -17 -326 -165 -326c-48 0 -108 21 -108 84c0 32 28 58 60 58c56 0 48 -62 72 -65c13 3 14 18 14 33c0 35 -3 69 -3 104v501c0 114 2 284 167 284
c45 0 107 -22 107 -83z" />
    <glyph glyph-name="radical" unicode="&#x221a;" horiz-adv-x="553" 
d="M564 786l-212 -1000h-116l-149 308l-51 -24l-47 102l161 74l121 -256l163 796h130z" />
    <glyph glyph-name="summation" unicode="&#x2211;" horiz-adv-x="657" 
d="M634 -214h-608v100l297 406l-285 394v100h584v-118h-412l265 -375l-283 -389h442v-118z" />
    <glyph glyph-name="product" unicode="&#x220f;" horiz-adv-x="747" 
d="M687 -214h-133v882h-361v-882h-133v1000h627v-1000z" />
    <glyph glyph-name="lozenge" unicode="&#x25ca;" horiz-adv-x="600" 
d="M535 356l-181 -391h-110l-179 391l179 391h110zM410 356l-111 263l-109 -263l109 -263z" />
    <glyph glyph-name="uniF8FF" unicode="&#xf8ff;" horiz-adv-x="512" 
d="M278 117h-56v67h56v-67zM271 234h-46l-2 17c0 37 4 64 13 81s23 36 46 59c43 40 50 59 50 83c0 48 -35 85 -76 85s-74 -27 -82 -95l-50 8c9 96 63 137 135 137s124 -51 124 -131c0 -43 -12 -73 -63 -120c-25 -22 -39 -39 -43 -52s-6 -37 -6 -72zM50 50h412v617h-412v-617
zM0 718h512v-718h-512v718z" />
    </font>
</defs>
</svg>
